Hercules 2014 Extended NORDiC 1080p REMUX BluRay AVC DTS-HD MA 7 1-NorTekst

Having endured his legendary twelve labors, Hercules, the Greek demigod, has his life as a sword-for-hire tested when the King of Thrace and his daughter seek his aid in defeating a tyrannical warlord.

Year: 2014
Release date: Friday 25th July 2014
Genre: Action, Adventure

Rating

6/10
(0 Votes)

0

Your Rating

Stars:
Dwayne Johnson, John Hurt, Ian McShane, Joseph Fiennes

Hercules.2014.Extended.NORDiC.1080p.REMUX.BluRay.AVC.DTS-HD.MA.7.1-NorTekst
IMDB: https://www.imdb.com/title/tt1267297

Having endured his legendary twelve labors, Hercules, the Greek demigod, has his life as a sword-for-hire tested when the King of Thrace and his daughter seek his aid in defeating a tyrannical warlord.
--------------------
General
Unique ID : 19937803733372131950069066978863707082 (0xEFFE19E6B6CCD5B12A98E4039D973CA)
Complete name : Hercules.2014.Extended.NORDiC.1080p.REMUX.BluRay.AVC.DTS-HD.MA.7.1-NorTekst.mkv
Format : Matroska
Format version : Version 4
File size : 21.3 GiB
Duration : 1 h 41 min
Overall bit rate mode : Variable
Overall bit rate : 30.0 Mb/s
Frame rate : 23.976 FPS
Movie name : Hercules.2014.Extended.NORDiC.1080p.REMUX.BluRay.AVC.DTS-HD.MA.7.1-NorTekst
Encoded date : 2024-07-04 11:07:40 UTC
Writing application : mkvmerge v78.0 ('Running') 64-bit
Writing library : libebml v1.4.4 + libmatroska v1.7.1

Video
ID : 1
Format : AVC
Format/Info : Advanced Video Codec: Format profile : High@L4.1
Format settings : CABAC / 4 Ref Frames
Format settings, CABAC : Yes
Format settings, Reference frames : 4 frames
Format settings, Slice count : 4 slices per frame
Codec ID : V_MPEG4/ISO/AVC
Duration : 1 h 41 min
Bit rate mode : Variable
Bit rate : 24.5 Mb/s
Maximum bit rate : 35.0 Mb/s
Width : 1 920 pixels
Height : 1 080 pixels
Display aspect ratio : 16:9
Frame rate mode : Constant
Frame rate : 23.976 (24000/1001) FPS
Color space : YUV
Chroma subsampling : 4:2:0
Bit depth : 8 bits
Scan type : Progressive
Bits/(Pixel*Frame) : 0.494
Time code of first frame : 00:59:59:00
Stream size : 17.4 GiB (82%)
Default : Yes
Forced : No

Audio
ID : 2
Format : DTS XLL
Format/Info : Digital Theater Systems
Commercial name : DTS-HD Master Audio
Codec ID : A_DTS
Duration : 1 h 41 min
Bit rate mode : Variable
Bit rate : 5 401 kb/s
Channel(s) : 8 channels
Channel layout : C L R LFE Lb Rb Lss Rss
Sampling rate : 48.0 kHz
Frame rate : 93.750 FPS (512 SPF)
Bit depth : 24 bits
Compression mode : Lossless
Stream size : 3.83 GiB (18%)
Title : Engelsk
Language : English
Default : Yes
Forced : No

Text #1
ID : 3
Format : UTF-8
Codec ID : S_TEXT/UTF8
Codec ID/Info : UTF-8 Plain Text
Duration : 1 h 33 min
Bit rate : 43 b/s
Frame rate : 0.174 FPS
Count of elements : 977
Stream size : 29.9 KiB (0%)
Title : Engelsk
Language : English
Default : No
Forced : No

Text #2
ID : 4
Format : UTF-8
Codec ID : S_TEXT/UTF8
Codec ID/Info : UTF-8 Plain Text
Duration : 1 h 33 min
Bit rate : 41 b/s
Frame rate : 0.170 FPS
Count of elements : 956
Stream size : 28.8 KiB (0%)
Title : Dansk
Language : Danish
Default : No
Forced : No

Text #3
ID : 5
Format : UTF-8
Codec ID : S_TEXT/UTF8
Codec ID/Info : UTF-8 Plain Text
Duration : 1 h 33 min
Bit rate : 39 b/s
Frame rate : 0.171 FPS
Count of elements : 959
Stream size : 27.0 KiB (0%)
Title : Finsk
Language : Finnish
Default : No
Forced : No

Text #4
ID : 6
Format : UTF-8
Codec ID : S_TEXT/UTF8
Codec ID/Info : UTF-8 Plain Text
Duration : 1 h 33 min
Bit rate : 41 b/s
Frame rate : 0.174 FPS
Count of elements : 980
Stream size : 28.6 KiB (0%)
Title : Norsk
Language : Norwegian
Default : No
Forced : No

Text #5
ID : 7
Format : UTF-8
Codec ID : S_TEXT/UTF8
Codec ID/Info : UTF-8 Plain Text
Duration : 1 h 33 min
Bit rate : 41 b/s
Frame rate : 0.152 FPS
Count of elements : 854
Stream size : 28.5 KiB (0%)
Title : Svensk
Language : Swedish
Default : No
Forced : No

Menu
00:00:00.000 : en:00:00:00.000
00:08:10.782 : en:00:08:10.782
00:14:15.813 : en:00:14:15.813
00:23:38.250 : en:00:23:38.250
00:31:23.757 : en:00:31:23.757
00:41:12.136 : en:00:41:12.136
00:51:34.341 : en:00:51:34.341
00:57:31.281 : en:00:57:31.281
01:05:57.620 : en:01:05:57.620
01:16:07.855 : en:01:16:07.855
01:24:28.897 : en:01:24:28.897
01:34:24.701 : en:01:34:24.701
--------------------
Source: LEGi0N
Nordic subs: Danishbits - Retail SRT
English subs: AMiABLE - Retail SRT

Enjoy :P

Files