Shock Treatment (1981) - Arrow BR 1080p 2 0 AVC PCM [Gyoxx]

Janet and Brad become contestants on a game show... but wind up as captives instead.

Year: 1981
Duration: 94 min
Release date: Friday 30th October 1981
Genre: Comedy, Musical

Rating

5.8/10
(3741 Votes)

0

Your Rating

Stars:
Jessica Harper, Cliff De Young, Richard O'Brien, Patricia Quinn

General
Unique ID : 145777940304214207921402848915542364742 (0x6DABCF5F31B69C2CFD9F9CCD9D31D246)
Complete name : Shock Treatment (1981) - Arrow BR 1080p 2.0 AVC PCM [Gyoxx].mkv
Format : Matroska
Format version : Version 2
File size : 27.5 GiB
Duration : 1 h 40 min
Overall bit rate mode : Variable
Overall bit rate : 39.0 Mb/s
Frame rate : 23.976 FPS
Movie name : SHOCK TREATMENT
Encoded date : 2021-03-11 03:59:06 UTC
Writing application : MakeMKV v1.15.3 darwin(x64-release)
Writing library : libmakemkv v1.15.3 (1.3.10/1.5.2) darwin(x64-release)

Video
ID : 1
ID in the original source medium : 4113 (0x1011)
Format : AVC
Format/Info : Advanced Video Codec: Format profile : High@L4.1
Format settings : CABAC / 3 Ref Frames
Format settings, CABAC : Yes
Format settings, Reference frames : 3 frames
Format settings, Slice count : 4 slices per frame
Codec ID : V_MPEG4/ISO/AVC
Duration : 1 h 35 min
Bit rate mode : Variable
Bit rate : 35.0 Mb/s
Width : 1 920 pixels
Height : 1 080 pixels
Display aspect ratio : 16:9
Frame rate mode : Constant
Frame rate : 23.976 (24000/1001) FPS
Color space : YUV
Chroma subsampling : 4:2:0
Bit depth : 8 bits
Scan type : Progressive
Bits/(Pixel*Frame) : 0.704
Stream size : 22.5 GiB (82%)
Writing library : x264 core 148 r2705 3f5ed56
Encoding settings : cabac=1 / ref=4 / deblock=0:-1:-1 / analyse=0x3:0x113 / me=umh / subme=8 / psy=1 / psy_rd=1.00:0.15 / mixed_ref=1 / me_range=16 / chroma_me=1 / trellis=1 / 8x8dct=1 / cqm=0 / deadzone=21,11 / fast_pskip=1 / chroma_qp_offset=-3 / threads=12 / lookahead_threads=2 / sliced_threads=0 / slices=4 / nr=0 / decimate=1 / interlaced=0 / bluray_compat=1 / constrained_intra=0 / bframes=3 / b_pyramid=1 / b_adapt=2 / b_bias=0 / direct=3 / weightb=1 / open_gop=1 / weightp=1 / keyint=24 / keyint_min=1 / scenecut=40 / intra_refresh=0 / rc_lookahead=24 / rc=cbr / mbtree=0 / bitrate=35000 / ratetol=1.0 / qcomp=0.30 / qpmin=0 / qpmax=69 / qpstep=4 / vbv_maxrate=35000 / vbv_bufsize=26250 / nal_hrd=vbr / filler=0 / ip_ratio=1.40 / pb_ratio=1.30 / aq=1:0.70
Language : English
Default : No
Forced : No
Color range : Limited
Color primaries : BT.709
Transfer characteristics : BT.709
Matrix coefficients : BT.709
Original source medium : Blu-ray

Audio #1
ID : 2
ID in the original source medium : 4352 (0x1100)
Format : PCM
Format settings : Little / Signed
Codec ID : A_PCM/INT/LIT
Duration : 1 h 35 min
Bit rate mode : Constant
Bit rate : 2 304 kb/s
Channel(s) : 2 channels
Sampling rate : 48.0 kHz
Frame rate : 30.000 FPS (1600 SPF)
Bit depth : 24 bits
Stream size : 1.53 GiB (6%)
Title : Original Stereo Mix
Language : English
Default : Yes
Forced : No
Original source medium : Blu-ray

Audio #2
ID : 3
ID in the original source medium : 4353 (0x1101)
Format : DTS XLL
Format/Info : Digital Theater Systems
Commercial name : DTS-HD Master Audio
Codec ID : A_DTS
Duration : 1 h 35 min
Bit rate mode : Variable
Bit rate : 2 477 kb/s
Channel(s) : 6 channels
Channel layout : C L R Ls Rs LFE
Sampling rate : 48.0 kHz
Frame rate : 93.750 FPS (512 SPF)
Bit depth : 24 bits
Compression mode : Lossless
Stream size : 1.64 GiB (6%)
Title : Surround 5.1
Language : English
Default : No
Forced : No
Original source medium : Blu-ray

Audio #3
ID : 4
ID in the original source medium : 4354 (0x1102)
Format : PCM
Format settings : Little / Signed
Codec ID : A_PCM/INT/LIT
Duration : 1 h 35 min
Bit rate mode : Constant
Bit rate : 2 304 kb/s
Channel(s) : 2 channels
Sampling rate : 48.0 kHz
Frame rate : 30.000 FPS (1600 SPF)
Bit depth : 24 bits
Stream size : 1.53 GiB (6%)
Title : Isolated music and effects track
Language : English
Default : No
Forced : No
Original source medium : Blu-ray

Audio #4
ID : 5
ID in the original source medium : 4355 (0x1103)
Format : AC-3
Format/Info : Audio Coding 3
Commercial name : Dolby Digital
Codec ID : A_AC3
Duration : 1 h 40 min
Bit rate mode : Constant
Bit rate : 192 kb/s
Channel(s) : 2 channels
Channel layout : L R
Sampling rate : 48.0 kHz
Frame rate : 31.250 FPS (1536 SPF)
Compression mode : Lossy
Stream size : 139 MiB (0%)
Title : Commentary actresses Patricia Quinn and Nell Campbell
Language : English
Service kind : Complete Main
Default : No
Forced : No
Original source medium : Blu-ray
Dialog Normalization : -31 dB
compr : -0.28 dB
dsurmod : Not Dolby Surround encoded
dialnorm_Average : -31 dB
dialnorm_Minimum : -31 dB
dialnorm_Maximum : -31 dB

Audio #5
ID : 6
ID in the original source medium : 4356 (0x1104)
Format : AC-3
Format/Info : Audio Coding 3
Commercial name : Dolby Digital
Codec ID : A_AC3
Duration : 1 h 35 min
Bit rate mode : Constant
Bit rate : 192 kb/s
Channel(s) : 2 channels
Channel layout : L R
Sampling rate : 48.0 kHz
Frame rate : 31.250 FPS (1536 SPF)
Compression mode : Lossy
Stream size : 131 MiB (0%)
Title : Commentary by “Mad Man” Mike and Bill Brennan
Language : English
Service kind : Complete Main
Default : No
Forced : No
Original source medium : Blu-ray
Dialog Normalization : -31 dB
compr : -0.28 dB
dsurmod : Not Dolby Surround encoded
dialnorm_Average : -31 dB
dialnorm_Minimum : -31 dB
dialnorm_Maximum : -31 dB

Text
ID : 7
ID in the original source medium : 4608 (0x1200)
Format : PGS
Codec ID : S_HDMV/PGS
Codec ID/Info : Picture based subtitle format used on BDs/HD-DVDs
Duration : 1 h 33 min
Bit rate : 40.9 kb/s
Frame rate : 0.491 FPS
Count of elements : 2756
Stream size : 27.4 MiB (0%)
Language : English
Default : Yes
Forced : No
Original source medium : Blu-ray

Menu
00:00:00.000 : en:Chapter 01
00:07:56.809 : en:Chapter 02
00:14:44.425 : en:Chapter 03
00:21:55.605 : en:Chapter 04
00:31:45.153 : en:Chapter 05
00:38:22.174 : en:Chapter 06
00:43:38.198 : en:Chapter 07
00:52:33.733 : en:Chapter 08
00:59:53.089 : en:Chapter 09
01:06:18.057 : en:Chapter 10
01:14:57.701 : en:Chapter 11
01:23:05.855 : en:Chapter 12
01:32:25.957 : en:Chapter 13

Files