Black Widow 1987 1080p BluRay REMUX AVC DTS-HD MA 2 0-EPSiLON

A federal investigator tracks down a gold digging woman who moves from husband to husband, kills them and collects the inheritance.

Year: 1987
Duration: 102 min
Release date: Friday 6th February 1987
Genre: Crime, Thriller

Rating

6.3/10
(6116 Votes)

0

Your Rating

Stars:
Debra Winger, Theresa Russell, Sami Frey, Dennis Hopper

Release Name....: Black.Widow.1987.1080p.BluRay.REMUX.AVC.DTS-HD.MA.2.0-EPSiLON
Video.....: MPEG-4 AVC Video / 29989 kbps / 1080p / 23.976 fps / 16:9 / High Profile 4.1
Audio 1...: English / DTS-HD Master Audio / 2.0 / 48 kHz / 1636 kbps / 24-bit
Audio 2...: English / Commentary by essayist Julie Kirgo and Nick Redman
Subtitles.: English (SDH)
Chapters..: Numbered
Source....: Black Widow 1987 1080p BluRay AVC DTS-HD MA 2.0-NOGROUP (Thanks!)

eac3to log;
eac3to v3.34
command line: "e;eac3to.exe"e; "e;D:\BLACK WIDOW\BDMV"e; 1) 1: "e;00000-01-Chapters.txt"e; 2: "e;00000-02-Video.h264"e; 3: "e;00000-03-MainAudio-English.dtsma"e; 4: "e;00000-04-Audio-English.ac3"e; -224 5: "e;00000-05-Audio-English.ac3"e; -224 6: "e;00000-06-Subtitle-English.sup"e; -progressnumbers -log="e;00000-Log.txt"e;
------------------------------------------------------------------------------
M2TS, 1 video track, 3 audio tracks, 1 subtitle track, 1:41:51, 24p /1.001
1: Chapters, 24 chapters
2: h264/AVC, 1080p24 /1.001 (16:9)
3: DTS Master Audio, English, 2.0 channels, 24 bits, 48kHz
(core: DTS, 2.0 channels, 1509kbps, 48kHz)
4: DTS Master Audio, English, 2.0 channels, 24 bits, 48kHz
(core: DTS, 2.0 channels, 1509kbps, 48kHz)
5: DTS Master Audio, English, 2.0 channels, 24 bits, 48kHz
(core: DTS, 2.0 channels, 768kbps, 48kHz)
6: Subtitle (PGS), English
Creating file "e;00000-01-Chapters.txt"e;...
[a05] Extracting audio track number 5...
[a05] Decoding with libDcaDec DTS Decoder...
[s06] Extracting subtitle track number 6...
[a05] libDcaDec reported the warning "e;XLL output not lossless"e;.
[v02] Extracting video track number 2...
[a04] Extracting audio track number 4...
[a05] Encoding AC3 with libAften...
[a03] Extracting audio track number 3...
[a04] Decoding with libDcaDec DTS Decoder...
[a04] libDcaDec reported the warning "e;XLL output not lossless"e;.
[a04] Encoding AC3 with libAften...
[v02] Creating file "e;00000-02-Video.h264"e;...
[a03] Creating file "e;00000-03-MainAudio-English.dtsma"e;...
[a05] Creating file "e;00000-05-Audio-English.ac3"e;...
[a04] Creating file "e;00000-04-Audio-English.ac3"e;...
[s06] Creating file "e;00000-06-Subtitle-English.sup"e;...
[a04] The original audio track has a constant bit depth of 24 bits.
[a05] The original audio track has a constant bit depth of 24 bits.
Video track 2 contains 146528 frames.
Subtitle track 6 contains 1068 captions.
eac3to processing took 14 minutes, 20 seconds.
Done.

Mediainfo:
General
Unique ID : 185926285142847707854741445784973378726 (0x8BE01999A279A7D3D5FFD04F340484A6)
Complete name : Black.Widow.1987.1080p.BluRay.REMUX.AVC.DTS-HD.MA.2.0-EPSiLON.mkv
Format : Matroska
Format version : Version 4
File size : 22.6 GiB
Duration : 1 h 41 min
Overall bit rate mode : Variable
Overall bit rate : 31.8 Mb/s
Movie name : Black Widow (1987)
Encoded date : UTC 2019-06-12 10:51:54
Writing application : mkvmerge v34.0.0 ('Sight and Seen') 64-bit
Writing library : libebml v1.3.7 + libmatroska v1.5.0
IMDB : tt0090738
TMDB : movie/19345

Video
ID : 1
Format : AVC
Format/Info : Advanced Video Codec: Format profile : High@L4.1
Format settings : CABAC / 4 Ref Frames
Format settings, CABAC : Yes
Format settings, Reference frames : 4 frames
Codec ID : V_MPEG4/ISO/AVC
Duration : 1 h 41 min
Bit rate mode : Variable
Bit rate : 29.9 Mb/s
Maximum bit rate : 35.0 Mb/s
Width : 1 920 pixels
Height : 1 080 pixels
Display aspect ratio : 16:9
Frame rate mode : Constant
Frame rate : 23.976 (24000/1001) FPS
Color space : YUV
Chroma subsampling : 4:2:0
Bit depth : 8 bits
Scan type : Progressive
Bits/(Pixel*Frame) : 0.601
Stream size : 21.3 GiB (94%)
Title : MPEG-4 AVC Video / 29989 kbps / 1080p / 23.976 fps / 16:9 / High Profile 4.1
Language : English
Default : Yes
Forced : No

Audio #1
ID : 2
Format : DTS XLL
Format/Info : Digital Theater Systems
Commercial name : DTS-HD Master Audio
Codec ID : A_DTS
Duration : 1 h 41 min
Bit rate mode : Variable
Bit rate : 1 636 kb/s
Channel(s) : 2 channels
Channel layout : L R
Sampling rate : 48.0 kHz
Frame rate : 93.750 FPS (512 SPF)
Bit depth : 24 bits
Compression mode : Lossless
Stream size : 1.16 GiB (5%)
Title : DTS-HD Master Audio / 2.0 / 48 kHz / 1636 kbps / 24-bit
Language : English
Default : Yes
Forced : No

Audio #2
ID : 3
Format : AC-3
Format/Info : Audio Coding 3
Commercial name : Dolby Digital
Codec ID : A_AC3
Duration : 1 h 41 min
Bit rate mode : Constant
Bit rate : 224 kb/s
Channel(s) : 2 channels
Channel layout : L R
Sampling rate : 48.0 kHz
Frame rate : 31.250 FPS (1536 SPF)
Bit depth : 16 bits
Compression mode : Lossy
Stream size : 163 MiB (1%)
Title : Commentary by essayist Julie Kirgo and Nick Redman
Language : English
Service kind : Complete Main
Default : No
Forced : No

Text
ID : 4
Format : PGS
Codec ID : S_HDMV/PGS
Codec ID/Info : Picture based subtitle format used on BDs/HD-DVDs
Duration : 1 h 38 min
Bit rate : 40.4 kb/s
Count of elements : 2136
Stream size : 28.5 MiB (0%)
Title : SDH
Language : English
Default : No
Forced : No

Menu
00:00:00.000 : en:Chapter 1
00:04:59.633 : en:Chapter 2
00:08:35.598 : en:Chapter 3
00:12:50.103 : en:Chapter 4
00:16:19.604 : en:Chapter 5
00:20:07.039 : en:Chapter 6
00:25:53.260 : en:Chapter 7
00:29:20.634 : en:Chapter 8
00:34:10.215 : en:Chapter 9
00:38:13.917 : en:Chapter 10
00:42:20.079 : en:Chapter 11
00:47:20.046 : en:Chapter 12
00:51:30.838 : en:Chapter 13
00:55:32.412 : en:Chapter 14
00:59:11.339 : en:Chapter 15
01:05:34.055 : en:Chapter 16
01:08:07.500 : en:Chapter 17
01:12:12.870 : en:Chapter 18
01:16:46.143 : en:Chapter 19
01:20:43.422 : en:Chapter 20
01:25:20.115 : en:Chapter 21
01:28:21.338 : en:Chapter 22
01:32:57.614 : en:Chapter 23
01:38:57.932 : en:Chapter 24

Files