The Batman 2022 NORDiC 1080p REMUX BluRay AVC DTS-HD MA 7 1 Atmos-NorTekst

The plot is unknown.

Year: 2022
Release date: Monday 28th February 2022
Genre: Action, Crime, Drama

Rating

7.8/10
(765024 Votes)

0

Your Rating

Stars:
Andy Serkis, Colin Farrell, Robert Pattinson, Zo Kravitz, Peter Sarsgaard, Paul Dano, Jeffrey Wright, Barry Keoghan

The.Batman.2022.NORDiC.1080p.REMUX.BluRay.AVC.DTS-HD.MA.7.1.Atmos-NorTekst
IMDB: https://www.imdb.com/title/tt1877830

When a sadistic serial killer begins murdering key political figures in Gotham, The Batman is forced to investigate the city's hidden corruption and question his family's involvement.
------------------
General
Unique ID : 276830518160605918046976831054209635980 (0xD0439E5262360E2CE834E1CF7A74568C)
Complete name : The.Batman.2022.NORDiC.1080p.REMUX.BluRay.AVC.DTS-HD.MA.7.1.Atmos-NorTekst.mkv
Format : Matroska
Format version : Version 4
File size : 33.5 GiB
Duration : 2 h 56 min
Overall bit rate mode : Variable
Overall bit rate : 27.2 Mb/s
Frame rate : 23.976 FPS
Movie name : The.Batman.2022.NORDiC.1080p.REMUX.BluRay.AVC.DTS-HD.MA.7.1.Atmos-NorTekst
Encoded date : 2024-07-04 10:02:05 UTC
Writing application : mkvmerge v78.0 ('Running') 64-bit
Writing library : libebml v1.4.4 + libmatroska v1.7.1

Video
ID : 1
ID in the original source medium : 4113 (0x1011)
Format : AVC
Format/Info : Advanced Video Codec: Format profile : High@L4.1
Format settings : CABAC / 2 Ref Frames
Format settings, CABAC : Yes
Format settings, Reference frames : 2 frames
Format settings, Slice count : 4 slices per frame
Codec ID : V_MPEG4/ISO/AVC
Duration : 2 h 56 min
Bit rate mode : Variable
Bit rate : 19.9 Mb/s
Width : 1 920 pixels
Height : 1 080 pixels
Display aspect ratio : 16:9
Frame rate mode : Constant
Frame rate : 23.976 (24000/1001) FPS
Color space : YUV
Chroma subsampling : 4:2:0
Bit depth : 8 bits
Scan type : Progressive
Bits/(Pixel*Frame) : 0.401
Time code of first frame : 01:00:01:00
Stream size : 24.5 GiB (73%)
Default : Yes
Forced : No
Original source medium : Blu-ray

Audio #1
ID : 2
ID in the original source medium : 4352 (0x1100)
Format : MLP FBA 16-ch
Format/Info : Meridian Lossless Packing FBA with 16-channel presentation
Commercial name : Dolby TrueHD with Dolby Atmos
Codec ID : A_TRUEHD
Duration : 2 h 56 min
Bit rate mode : Variable
Bit rate : 3 028 kb/s
Maximum bit rate : 5 271 kb/s
Channel(s) : 8 channels
Channel layout : L R C LFE Ls Rs Lb Rb
Sampling rate : 48.0 kHz
Frame rate : 1 200.000 FPS (40 SPF)
Compression mode : Lossless
Stream size : 3.73 GiB (11%)
Title : Engelsk TrueHD 7.1 with Atmos
Language : English
Default : Yes
Forced : No
Original source medium : Blu-ray
Number of dynamic objects : 11
Bed channel count : 1 channel
Bed channel configuration : LFE

Audio #2
ID : 3
ID in the original source medium : 4352 (0x1100)
Format : AC-3
Format/Info : Audio Coding 3
Commercial name : Dolby Digital
Format settings : Dolby Surround EX
Codec ID : A_AC3
Duration : 2 h 56 min
Bit rate mode : Constant
Bit rate : 448 kb/s
Channel(s) : 6 channels
Channel layout : L R C LFE Ls Rs
Sampling rate : 48.0 kHz
Frame rate : 31.250 FPS (1536 SPF)
Compression mode : Lossy
Stream size : 565 MiB (2%)
Title : Engelsk DD 5.1 Sourround EX
Language : English
Service kind : Complete Main
Default : No
Forced : No
Original source medium : Blu-ray
Dialog Normalization : -31 dB
compr : 3.88 dB
dynrng : 3.34 dB
cmixlev : -3.0 dB
surmixlev : -3 dB
dmixmod : Lt/Rt
ltrtcmixlev : -3.0 dB
ltrtsurmixlev : -3.0 dB
lorocmixlev : -3.0 dB
lorosurmixlev : -3.0 dB
dialnorm_Average : -31 dB
dialnorm_Minimum : -31 dB
dialnorm_Maximum : -31 dB

Audio #3
ID : 4
Format : DTS ES XLL
Format/Info : Digital Theater Systems
Commercial name : DTS-HD Master Audio
Codec ID : A_DTS
Duration : 2 h 56 min
Bit rate mode : Variable
Bit rate : 3 731 kb/s
Channel(s) : 8 channels
Channel layout : C L R Ls Rs LFE Lb Rb
Sampling rate : 48.0 kHz
Frame rate : 93.750 FPS (512 SPF)
Bit depth : 24 bits
Compression mode : Lossless
Stream size : 4.59 GiB (14%)
Title : Engelsk DTS-HD MA 7.1
Language : English
Default : No
Forced : No

Text #1
ID : 5
Format : UTF-8
Codec ID : S_TEXT/UTF8
Codec ID/Info : UTF-8 Plain Text
Duration : 2 h 43 min
Bit rate : 48 b/s
Frame rate : 0.191 FPS
Count of elements : 1877
Stream size : 58.1 KiB (0%)
Title : Engelsk
Language : English
Default : No
Forced : No

Text #2
ID : 6
Format : UTF-8
Codec ID : S_TEXT/UTF8
Codec ID/Info : UTF-8 Plain Text
Duration : 2 h 53 min
Bit rate : 35 b/s
Frame rate : 0.121 FPS
Count of elements : 1259
Stream size : 45.8 KiB (0%)
Title : Dansk
Language : Danish
Default : No
Forced : No

Text #3
ID : 7
Format : UTF-8
Codec ID : S_TEXT/UTF8
Codec ID/Info : UTF-8 Plain Text
Duration : 2 h 54 min
Bit rate : 44 b/s
Frame rate : 0.185 FPS
Count of elements : 1940
Stream size : 56.6 KiB (0%)
Title : Finsk
Language : Finnish
Default : No
Forced : No

Text #4
ID : 8
Format : UTF-8
Codec ID : S_TEXT/UTF8
Codec ID/Info : UTF-8 Plain Text
Duration : 2 h 54 min
Bit rate : 38 b/s
Frame rate : 0.148 FPS
Count of elements : 1554
Stream size : 49.3 KiB (0%)
Title : Norsk
Language : Norwegian
Default : No
Forced : No

Text #5
ID : 9
Format : UTF-8
Codec ID : S_TEXT/UTF8
Codec ID/Info : UTF-8 Plain Text
Duration : 2 h 54 min
Bit rate : 38 b/s
Frame rate : 0.134 FPS
Count of elements : 1400
Stream size : 48.9 KiB (0%)
Title : Svensk
Language : Swedish
Default : No
Forced : No

Menu
00:00:00.000 : en:Chapter 01
00:12:01.387 : en:Chapter 02
00:23:21.650 : en:Chapter 03
00:31:53.828 : en:Chapter 04
00:41:44.502 : en:Chapter 05
00:51:36.676 : en:Chapter 06
01:00:12.900 : en:Chapter 07
01:10:32.394 : en:Chapter 08
01:18:35.127 : en:Chapter 09
01:29:14.724 : en:Chapter 10
01:42:33.147 : en:Chapter 11
01:52:16.896 : en:Chapter 12
01:58:21.219 : en:Chapter 13
02:09:39.980 : en:Chapter 14
02:21:14.466 : en:Chapter 15
02:27:31.342 : en:Chapter 16
02:38:36.006 : en:Chapter 17
02:46:58.341 : en:Chapter 18
------------------
Source: LEGi0N
Nordic subs: Resync of BUMP - Retail SRT
English subs: Retail SRT

Enjoy :P

Files