Ghost Rider 2007 Extended Cut NORDiC 1080p REMUX BluRay AVC TrueHD 5 1-NorTekst

Based on the Marvel character, stunt motorcyclist Johnny Blaze gives up his soul to become a hellblazing vigilante, to fight against power hungry Blackheart, the son of the devil himself.

Year: 2007
Duration: 114 min
Release date: Friday 16th February 2007
Genre: Action, Fantasy, Thriller

Rating

5.2/10
(64483 Votes)

0

Your Rating

Stars:
Matt Long, Raquel Alessi, Brett Cullen, Peter Fonda

Ghost.Rider.2007.Extended.Cut.NORDiC.1080p.REMUX.BluRay.AVC.TrueHD.5.1-NorTekst
IMDB: https://www.imdb.com/title/tt0259324

When motorcycle rider Johnny Blaze sells his soul to the Devil to save his father's life, he is transformed into the Ghost Rider, the Devil's own bounty hunter, and is sent to hunt down sinners.
------------------------
General
Unique ID : 202379844923798950560844482317457889155 (0x9840F0BAA426C3ADAE818C852DAD1783)
Complete name : Ghost.Rider.2007.Extended.Cut.NORDiC.1080p.REMUX.BluRay.AVC.TrueHD.5.1-NorTekst.mkv
Format : Matroska
Format version : Version 4
File size : 25.4 GiB
Duration : 2 h 3 min
Overall bit rate mode : Variable
Overall bit rate : 29.5 Mb/s
Frame rate : 23.976 FPS
Movie name : Ghost.Rider.2007.Extended.Cut.NORDiC.1080p.REMUX.BluRay.AVC.TrueHD.5.1-NorTekst
Encoded date : 2024-07-04 08:51:54 UTC
Writing application : mkvmerge v78.0 ('Running') 64-bit
Writing library : libebml v1.4.4 + libmatroska v1.7.1
Attachments : Poster
IMDb : tt0259324
IMDb_Rating : 5.3 / 10

Video
ID : 1
ID in the original source medium : 4113 (0x1011)
Format : AVC
Format/Info : Advanced Video Codec: Format profile : High@L4.1
Format settings : CABAC / 2 Ref Frames
Format settings, CABAC : Yes
Format settings, Reference frames : 2 frames
Format settings, Slice count : 4 slices per frame
Codec ID : V_MPEG4/ISO/AVC
Duration : 2 h 3 min
Bit rate mode : Variable
Bit rate : 26.7 Mb/s
Width : 1 920 pixels
Height : 1 080 pixels
Display aspect ratio : 16:9
Frame rate mode : Constant
Frame rate : 23.976 (24000/1001) FPS
Color space : YUV
Chroma subsampling : 4:2:0
Bit depth : 8 bits
Scan type : Progressive
Bits/(Pixel*Frame) : 0.537
Stream size : 23.0 GiB (90%)
Default : Yes
Forced : Yes
Original source medium : Blu-ray

Audio
ID : 2
ID in the original source medium : 4352 (0x1100)
Format : MLP FBA
Format/Info : Meridian Lossless Packing FBA
Commercial name : Dolby TrueHD
Codec ID : A_TRUEHD
Duration : 2 h 2 min
Bit rate mode : Variable
Bit rate : 2 781 kb/s
Maximum bit rate : 4 257 kb/s
Channel(s) : 6 channels
Channel layout : L R C LFE Ls Rs
Sampling rate : 48.0 kHz
Frame rate : 1 200.000 FPS (40 SPF)
Compression mode : Lossless
Stream size : 2.38 GiB (9%)
Title : Engelsk Dolby TrueHD 5.1
Language : English (US)
Default : Yes
Forced : Yes
Original source medium : Blu-ray

Text #1
ID : 3
Format : UTF-8
Codec ID : S_TEXT/UTF8
Codec ID/Info : UTF-8 Plain Text
Duration : 1 h 54 min
Bit rate : 40 b/s
Frame rate : 0.158 FPS
Count of elements : 1092
Stream size : 33.8 KiB (0%)
Title : Engelsk
Language : English
Default : No
Forced : No

Text #2
ID : 4
Format : UTF-8
Codec ID : S_TEXT/UTF8
Codec ID/Info : UTF-8 Plain Text
Duration : 1 h 54 min
Bit rate : 35 b/s
Frame rate : 0.133 FPS
Count of elements : 916
Stream size : 29.8 KiB (0%)
Title : Dansk
Language : Danish
Default : No
Forced : No

Text #3
ID : 5
Format : UTF-8
Codec ID : S_TEXT/UTF8
Codec ID/Info : UTF-8 Plain Text
Duration : 1 h 54 min
Bit rate : 33 b/s
Frame rate : 0.147 FPS
Count of elements : 1013
Stream size : 28.2 KiB (0%)
Title : Finsk
Language : Finnish
Default : No
Forced : No

Text #4
ID : 6
Format : UTF-8
Codec ID : S_TEXT/UTF8
Codec ID/Info : UTF-8 Plain Text
Duration : 1 h 54 min
Bit rate : 34 b/s
Frame rate : 0.157 FPS
Count of elements : 1081
Stream size : 29.4 KiB (0%)
Title : Norsk
Language : Norwegian
Default : No
Forced : No

Text #5
ID : 7
Format : UTF-8
Codec ID : S_TEXT/UTF8
Codec ID/Info : UTF-8 Plain Text
Duration : 1 h 54 min
Bit rate : 36 b/s
Frame rate : 0.127 FPS
Count of elements : 878
Stream size : 31.0 KiB (0%)
Title : Svensk
Language : Swedish
Default : No
Forced : No

Menu
00:00:00.000 : en-US:Ghost Legend
00:09:21.394 : en-US:Changing Paths
00:18:28.690 : en-US:Mr. Invincible
00:21:21.571 : en-US:Second Chances
00:28:40.135 : en-US:An Old Friend
00:35:54.110 : en-US:Only Johnny Blaze
00:42:02.102 : en-US:Always There
00:47:37.646 : en-US:Rider's Work
00:56:00.607 : en-US:Bounty Hunter
01:05:50.029 : en-US:Sparking Flames
01:12:49.198 : en-US:Caged Fire
01:18:28.286 : en-US:In Pursuit
01:25:15.235 : en-US:Rider Tales
01:37:06.111 : en-US:Last Ride
01:45:45.839 : en-US:Ready For Battle
01:49:38.780 : en-US:A Deal's A Deal
------------------------
Source: DataLass
Subs: Retail SRT

Enjoy :P

Files