The Theatre Bizarre 2011 BluRay REMUX 1080p AVC DTS-HD MA

Down a seedy city street in her neighborhood, young Enola Penny is obsessed with what appears to be a long abandoned theatre...

Year: 2011
Duration: 114 min
Genre: Horror

Rating

5.7/10
(169 Votes)

0

Your Rating

Stars:
Udo Kier, Virginia Newcomb, Amanda Marquardt, Amelia M. Gotham

General
Unique ID : 276190759585081560359186188138898289271 (0xCFC867C9EB61C3C7737C2274CCA87277)
Complete name : The.Theatre.Bizarre.2011.BluRay.REMUX.1080p.AVC.DTS-HD.MA.mkv
Format : Matroska
Format version : Version 4
File size : 13.7 GiB
Duration : 1 h 53 min
Overall bit rate mode : Variable
Overall bit rate : 17.3 Mb/s
Frame rate : 23.976 FPS
Movie name : The Theatre Bizarre [2011] BluRay REMUX
Encoded date : 2020-09-16 00:27:17 UTC
Writing application : mkvmerge v50.0.0 ('Awakenings') 64-bit
Writing library : libebml v1.4.0 + libmatroska v1.6.2

Video
ID : 1
Format : AVC
Format/Info : Advanced Video Codec: Format profile : High@L4.1
Format settings : CABAC / 3 Ref Frames
Format settings, CABAC : Yes
Format settings, Reference frames : 3 frames
Codec ID : V_MPEG4/ISO/AVC
Duration : 1 h 53 min
Bit rate mode : Variable
Bit rate : 15.4 Mb/s
Maximum bit rate : 25.0 Mb/s
Width : 1 920 pixels
Height : 1 080 pixels
Display aspect ratio : 16:9
Frame rate mode : Constant
Frame rate : 23.976 (24000/1001) FPS
Standard : NTSC
Color space : YUV
Chroma subsampling : 4:2:0
Bit depth : 8 bits
Scan type : Progressive
Bits/(Pixel*Frame) : 0.310
Stream size : 12.3 GiB (89%)
Default : Yes
Forced : No
Color range : Limited
Color primaries : BT.709
Transfer characteristics : BT.709
Matrix coefficients : BT.709

Audio #1
ID : 2
Format : DTS XLL
Format/Info : Digital Theater Systems
Commercial name : DTS-HD Master Audio
Codec ID : A_DTS
Duration : 1 h 53 min
Bit rate mode : Variable
Bit rate : 1 792 kb/s
Channel(s) : 6 channels
Channel layout : C L R Ls Rs LFE
Sampling rate : 48.0 kHz
Frame rate : 93.750 FPS (512 SPF)
Bit depth : 16 bits
Compression mode : Lossless
Stream size : 1.42 GiB (10%)
Language : English
Default : Yes
Forced : No

Audio #2
ID : 3
Format : Vorbis
Format settings, Floor : 1
Codec ID : A_VORBIS
Duration : 1 h 53 min
Bit rate mode : Variable
Bit rate : 80.0 kb/s
Channel(s) : 2 channels
Sampling rate : 48.0 kHz
Frame rate : 63.186 FPS (760 SPF)
Compression mode : Lossy
Stream size : 57.8 MiB (0%)
Title : Commentary with Directors
Writing library : aoTuV 20110424 (2011-04-24)
Language : English
Default : No
Forced : No

Menu
00:00:00.000 : Opening Sequence
00:06:21.756 : Old Lady's House
00:13:54.792 : My Little One
00:23:10.180 : Wedding Ring
00:31:41.024 : Falling In Love
00:39:25.488 : Stay with Me
00:46:59.942 : Night After Night
00:53:57.359 : A Denver Omelet
01:01:05.120 : Make Room
01:09:36.547 : Happily Ever After
01:16:37.551 : A Voice
01:24:07.709 : Don't Touch My Baby
01:32:05.353 : Selfish
01:36:38.418 : Chemistry
01:41:00.012 : Moderation
01:48:10.484 : Closing Credits

Files