Monday Morning 1990 1080p BluRay REMUX AVC FLAC 2 0-WaLKAFaLKA

Bobby Parker is a poor kid from the wrong side of the tracks. He and his best friend are new to Oceana High and their presence is not welcome. James can't stand any outsider and he doesn't like someone who "e;doesn't know his place"e;.

Year: 1990
Duration: 95 min
Genre: Crime, Drama, Thriller

Rating

4.4/10
(109 Votes)

0

Your Rating

Stars:
Noah Blake, Julianne McNamara, Brandon Hooper, Karl Wiedergott, Jason Lively, Shannon Absher, Brian Cole, Ricky Dean Logan

General
Unique ID : 226571196436493451614034300417041874394 (0xAA740671E2EB03AF99A6E2A80825BDDA)
Complete name : Monday.Morning.1990.1080p.BluRay.REMUX.AVC.FLAC.2.0-WaLKAFaLKA.mkv
Format : Matroska
Format version : Version 4
File size : 20.8 GiB
Duration : 1 h 37 min
Overall bit rate mode : Variable
Overall bit rate : 30.7 Mb/s
Movie name : Monday Morning [1990] - BluRay ReMuX - WaLKAFaLKA
Encoded date : UTC 2022-07-02 17:55:26
Writing application : mkvmerge v68.0.0 ('The Curtain') 64-bit
Writing library : libebml v1.4.2 + libmatroska v1.6.4

Video
ID : 1
Format : AVC
Format/Info : Advanced Video Codec: Format profile : High@L4.1
Format settings : CABAC / 3 Ref Frames
Format settings, CABAC : Yes
Format settings, Reference frames : 3 frames
Codec ID : V_MPEG4/ISO/AVC
Duration : 1 h 37 min
Bit rate mode : Variable
Bit rate : 30.0 Mb/s
Maximum bit rate : 40.0 Mb/s
Width : 1 920 pixels
Height : 1 080 pixels
Display aspect ratio : 16:9
Frame rate mode : Constant
Frame rate : 24.000 FPS
Color space : YUV
Chroma subsampling : 4:2:0
Bit depth : 8 bits
Scan type : Progressive
Bits/(Pixel*Frame) : 0.603
Stream size : 20.3 GiB (98%)
Title : MPEG-4 AVC Video / 29948 kbps / 1080p / 24.000 fps / 16:9 / High Profile 4.1
Writing library : x264 core 159 r2991 1771b55
Encoding settings : cabac=1 / ref=4 / deblock=1:-1:-1 / analyse=0x3:0x113 / me=hex / subme=7 / psy=1 / psy_rd=1.00:0.15 / mixed_ref=1 / me_range=16 / chroma_me=1 / trellis=1 / 8x8dct=1 / cqm=0 / deadzone=21,11 / fast_pskip=1 / chroma_qp_offset=-3 / threads=34 / lookahead_threads=5 / sliced_threads=0 / slices=4 / nr=0 / decimate=1 / interlaced=0 / bluray_compat=1 / constrained_intra=0 / bframes=3 / b_pyramid=1 / b_adapt=2 / b_bias=0 / direct=1 / weightb=1 / open_gop=1 / weightp=1 / keyint=23 / keyint_min=1 / scenecut=40 / intra_refresh=0 / rc_lookahead=23 / rc=2pass / mbtree=1 / bitrate=30000 / ratetol=1.0 / qcomp=0.60 / qpmin=0 / qpmax=69 / qpstep=4 / cplxblur=20.0 / qblur=0.5 / vbv_maxrate=40000 / vbv_bufsize=30000 / nal_hrd=vbr / filler=0 / ip_ratio=1.40 / aq=1:1.00
Language : English
Default : Yes
Forced : No
Color range : Limited
Color primaries : BT.709
Transfer characteristics : BT.709
Matrix coefficients : BT.709

Audio
ID : 2
Format : FLAC
Format/Info : Free Lossless Audio Codec: Codec ID : A_FLAC
Duration : 1 h 37 min
Bit rate mode : Variable
Bit rate : 713 kb/s
Channel(s) : 2 channels
Channel layout : L R
Sampling rate : 48.0 kHz
Frame rate : 11.719 FPS (4096 SPF)
Bit depth : 24 bits
Compression mode : Lossless
Stream size : 495 MiB (2%)
Title : FLAC Audio / 2.0 / 48 kHz / 713 kbps / 24-bit
Writing library : libFLAC 1.2.1 (UTC 2007-09-17)
Language : English
Default : Yes
Forced : No

Text
ID : 3
Format : PGS
Muxing mode : zlib
Codec ID : S_HDMV/PGS
Codec ID/Info : Picture based subtitle format used on BDs/HD-DVDs
Duration : 1 h 36 min
Bit rate : 28.3 kb/s
Count of elements : 4267
Stream size : 19.6 MiB (0%)
Language : English
Default : Yes
Forced : No

Menu
00:00:00.000 : :Chapter 01
00:07:42.000 : :Chapter 02
00:13:41.667 : :Chapter 03
00:20:07.792 : :Chapter 04
00:30:17.625 : :Chapter 05
00:36:30.875 : :Chapter 06
00:46:19.750 : :Chapter 07
00:53:31.667 : :Chapter 08
01:04:50.500 : :Chapter 09
01:14:09.042 : :Chapter 10
01:18:58.583 : :Chapter 11
01:30:19.750 : :Chapter 12

Files