Mind Games 1989 1080p Remux AVC Flac 2 0-EDPH

To save their marriage, Rita and Dana Lund go camping trip with their son Kevin and meet hitchhiker Eric, who befriends Kevin. Dana takes Eric with them not knowing he's a psychopath who'll force Kevin to take part in nightly vandalism.

Year: 1989
Duration: 93 min
Release date: Friday 3rd March 1989
Genre: Crime, Drama, Thriller

Rating

5.2/10
(317 Votes)

0

Your Rating

Stars:
Maxwell Caulfield, Edward Albert, Shawn Weatherly, Matt Norero

General
Unique ID : 199254536145876166873066091021627172740 (0x95E7071C0E0B3DE8163181D79EB22784)
Complete name : Mind.Games.1989.1080p.Remux.AVC.Flac.2.0-EDPH.mkv
Format : Matroska
Format version : Version 4
File size : 19.8 GiB
Duration : 1 h 32 min
Overall bit rate mode : Variable
Overall bit rate : 30.5 Mb/s
Movie name : Mind.Games.1989.1080p.Remux.AVC.Flac.2.0-EDPH
Encoded date : UTC 2020-05-14 02:46:34
Writing application : mkvmerge v42.0.0 ('Overtime') 64-bit
Writing library : libebml v1.3.10 + libmatroska v1.5.2

Video
ID : 1
Format : AVC
Format/Info : Advanced Video Codec: Format profile : High@L4.1
Format settings : CABAC / 3 Ref Frames
Format settings, CABAC : Yes
Format settings, Reference frames : 3 frames
Codec ID : V_MPEG4/ISO/AVC
Duration : 1 h 32 min
Bit rate mode : Variable
Bit rate : 30.0 Mb/s
Maximum bit rate : 40.0 Mb/s
Width : 1 920 pixels
Height : 1 080 pixels
Display aspect ratio : 16:9
Frame rate mode : Constant
Frame rate : 23.976 (24000/1001) FPS
Color space : YUV
Chroma subsampling : 4:2:0
Bit depth : 8 bits
Scan type : Progressive
Bits/(Pixel*Frame) : 0.603
Stream size : 19.4 GiB (98%)
Writing library : x264 core 157 r2935 545de2f
Encoding settings : cabac=1 / ref=4 / deblock=1:-1:-1 / analyse=0x3:0x113 / me=hex / subme=7 / psy=1 / psy_rd=1.00:0.15 / mixed_ref=1 / me_range=16 / chroma_me=1 / trellis=1 / 8x8dct=1 / cqm=0 / deadzone=21,11 / fast_pskip=1 / chroma_qp_offset=-3 / threads=12 / lookahead_threads=2 / sliced_threads=0 / slices=4 / nr=0 / decimate=1 / interlaced=0 / bluray_compat=1 / constrained_intra=0 / bframes=3 / b_pyramid=1 / b_adapt=2 / b_bias=0 / direct=1 / weightb=1 / open_gop=1 / weightp=1 / keyint=23 / keyint_min=1 / scenecut=40 / intra_refresh=0 / rc_lookahead=23 / rc=2pass / mbtree=1 / bitrate=30000 / ratetol=1.0 / qcomp=0.60 / qpmin=0 / qpmax=69 / qpstep=4 / cplxblur=20.0 / qblur=0.5 / vbv_maxrate=40000 / vbv_bufsize=30000 / nal_hrd=vbr / filler=0 / ip_ratio=1.40 / aq=1:1.00
Default : Yes
Forced : No
Color range : Limited
Color primaries : BT.709
Transfer characteristics : BT.709
Matrix coefficients : BT.709

Audio
ID : 2
Format : FLAC
Format/Info : Free Lossless Audio Codec: Codec ID : A_FLAC
Duration : 1 h 32 min
Bit rate mode : Variable
Bit rate : 532 kb/s
Channel(s) : 2 channels
Channel layout : L R
Sampling rate : 48.0 kHz
Frame rate : 11.719 FPS (4096 SPF)
Bit depth : 16 bits
Compression mode : Lossless
Stream size : 353 MiB (2%)
Writing library : libFLAC 1.2.1 (UTC 2007-09-17)
Language : English
Default : Yes
Forced : No

Text
ID : 3
Format : PGS
Muxing mode : zlib
Codec ID : S_HDMV/PGS
Codec ID/Info : Picture based subtitle format used on BDs/HD-DVDs
Duration : 1 h 32 min
Bit rate : 19.6 kb/s
Count of elements : 2645
Stream size : 13.0 MiB (0%)
Title : SDH
Language : English
Default : Yes
Forced : No

Menu
00:00:00.000 : en:Chapter 1
00:04:40.197 : en:Chapter 2
00:13:46.492 : en:Chapter 3
00:20:04.578 : en:Chapter 4
00:25:16.765 : en:Chapter 5
00:33:54.741 : en:Chapter 6
00:40:49.322 : en:Chapter 7
00:49:41.645 : en:Chapter 8
00:54:43.280 : en:Chapter 9
01:06:26.900 : en:Chapter 10
01:17:30.896 : en:Chapter 11
01:30:13.992 : en:Chapter 12

Files