Tank 1984 1080p BluRay Remux AVC FLAC 2 0

Sergeant Major Zak Carey is serving what is his final tour of duty at an Army base in Clemens, Georgia...

Year: 1984
Duration: 113 min
Release date: Friday 16th March 1984
Genre: Action, Drama, Comedy

Rating

5.6/10
(3254 Votes)

0

Your Rating

Stars:
James Garner, Shirley Jones, C. Thomas Howell, Mark Herrier

Tank.1984.1080p.BluRay.Remux.AVC.FLAC.2.0.mkv

General:
Container: Matroska
Size: 30.3 GiB
Runtime: 1 h 53 min
Overall Bit Rate: 38.4mb/s

Video:
Format: AVC
Resolution: 1920x1080
Aspect Ratio: 16:9
Frame Rate: 23.976 (24000/1001) FPS
Bit Rate: 37.8mb/s

Audio:
#1: English / FLAC / 2.0ch / 402kb/s / Dual Mono Audio / FLAC / 2.0 / 48 kHz / 402 kbps / 16-bit
#2: English / AC-3 / 2.0ch / 192kb/s / Commentary by Entertainment Journalist and Author Bryan Reesman

-----------------------------------------------------------------------------------------------------------

Source #1: KL Studio Classics BluRay (released 2021-05-11)
- Used for video, audio, commentary, and English PGS subs (English UTF-8 subs are an OCR of the PGS subs).

Source #2: Universal Pictures Home Entertainment DVD (released 2004-12-28)
- Used for chapter names.

-----------------------------------------------------------------------------------------------------------

General
Unique ID : 35729481292018180313012959155588142562 (0x1AE13F6F48158A838BBE4D0AED2F95E2)
Complete name : Tank.1984.1080p.BluRay.Remux.AVC.FLAC.2.0.mkv
Format : Matroska
Format version : Version 4
File size : 30.3 GiB
Duration : 1 h 53 min
Overall bit rate mode : Variable
Overall bit rate : 38.4 Mb/s
Encoded date : UTC 2021-09-18 02:03:33
Writing application : mkvmerge v61.0.0 ('So') 64-bit
Writing library : libebml v1.4.2 + libmatroska v1.6.4 / Lavf58.45.100

Video
ID : 1
ID in the original source medium : 4113 (0x1011)
Format : AVC
Format/Info : Advanced Video Codec: Format profile : High@L4.1
Format settings : CABAC / 4 Ref Frames
Format settings, CABAC : Yes
Format settings, Reference frames : 4 frames
Codec ID : V_MPEG4/ISO/AVC
Duration : 1 h 53 min
Bit rate mode : Variable
Bit rate : 37.8 Mb/s
Maximum bit rate : 40.0 Mb/s
Width : 1 920 pixels
Height : 1 080 pixels
Display aspect ratio : 16:9
Frame rate mode : Constant
Frame rate : 23.976 (24000/1001) FPS
Color space : YUV
Chroma subsampling : 4:2:0
Bit depth : 8 bits
Scan type : Progressive
Bits/(Pixel*Frame) : 0.760
Stream size : 29.8 GiB (98%)
Language : English
Default : No
Forced : No
Original source medium : Blu-ray

Audio #1
ID : 2
Format : FLAC
Format/Info : Free Lossless Audio Codec: Codec ID : A_FLAC
Duration : 1 h 53 min
Bit rate mode : Variable
Bit rate : 402 kb/s
Channel(s) : 2 channels
Channel layout : L R
Sampling rate : 48.0 kHz
Frame rate : 10.417 FPS (4608 SPF)
Bit depth : 16 bits
Compression mode : Lossless
Delay relative to video : 32 ms
Stream size : 325 MiB (1%)
Title : Dual Mono Audio / FLAC / 2.0 / 48 kHz / 402 kbps / 16-bit
Writing library : Lavc58.91.100 flac
Language : English
Default : Yes
Forced : No

Audio #2
ID : 3
ID in the original source medium : 4353 (0x1101)
Format : AC-3
Format/Info : Audio Coding 3
Commercial name : Dolby Digital
Codec ID : A_AC3
Duration : 1 h 53 min
Bit rate mode : Constant
Bit rate : 192 kb/s
Channel(s) : 2 channels
Channel layout : L R
Sampling rate : 48.0 kHz
Frame rate : 31.250 FPS (1536 SPF)
Compression mode : Lossy
Stream size : 155 MiB (0%)
Title : Commentary by Entertainment Journalist and Author Bryan Reesman
Language : English
Service kind : Complete Main
Default : No
Forced : No
Original source medium : Blu-ray

Text #1
ID : 4
ID in the original source medium : 4608 (0x1200)
Format : PGS
Codec ID : S_HDMV/PGS
Codec ID/Info : Picture based subtitle format used on BDs/HD-DVDs
Duration : 1 h 47 min
Bit rate : 35.6 kb/s
Count of elements : 2564
Stream size : 27.4 MiB (0%)
Title : English PGS
Language : English
Default : No
Forced : No
Original source medium : Blu-ray

Text #2
ID : 5
Format : UTF-8
Codec ID : S_TEXT/UTF8
Codec ID/Info : UTF-8 Plain Text
Duration : 1 h 47 min
Bit rate : 63 b/s
Count of elements : 1282
Stream size : 50.2 KiB (0%)
Title : English Text
Language : English
Default : No
Forced : No

Menu
00:00:00.000 : 1. Personal Belongings
00:06:05.073 : 2. Last Assignment
00:12:20.239 : 3. We Will Take Care of Our Own
00:18:04.792 : 4. A Mean Cracker
00:26:13.947 : 5. No Lone Ranger
00:30:51.599 : 6. Off Limits
00:37:25.159 : 7. The Heart of the Matter
00:45:20.175 : 8. Negative Feedback
00:51:26.124 : 9. The Course of True Love
00:55:46.217 : 10. Roadblock
01:01:19.300 : 11. I Got You Covered
01:07:33.007 : 12. Invading Army
01:14:50.569 : 13. Invitation to Violence
01:21:30.427 : 14. A Rough Ride
01:27:36.501 : 15. Folk Heroes
01:34:28.454 : 16. Tank Trap
01:40:51.712 : 17. Tug of War
01:46:49.027 : 18. You Have Lost
01:50:30.332 : 19. End Credits

Files