Domino 2005 1080p BluRay Remux VC-1 DTS-HD MA 5 1-PmP

A recounting of Domino Harvey's life story. The daughter of actor Laurence Harvey turned away from her career as a Ford model to become a bounty hunter.

Year: 2005
Duration: 127 min
Release date: Friday 14th October 2005
Genre: Action, Biography, Crime, Drama, Thriller

Rating

5.9/10
(45712 Votes)

0

Your Rating

Stars:
Keira Knightley, Mickey Rourke, Édgar Ramírez, Delroy Lindo

Filling a .

https://www.imdb.com/title/tt0421054/

A recounting of Domino Harvey's life story. The daughter of actor Laurence Harvey turned away from her career as a Ford model to become a bounty hunter.

Complete MediaInfo:

General
Unique ID : 142627929768835978466098318991919325269 (0x6B4D23DC988BF4A009C272C9C24EA055)
Complete name : /sdb/ezko/data/rtorrent/Domino.2005.1080p.BluRay.Remux.VC-1.DTS-HD.MA.5.1-PmP.mkv
Format : Matroska
Format version : Version 4
File size : 28.0 GiB
Duration : 2 h 7 min
Overall bit rate mode : Variable
Overall bit rate : 31.5 Mb/s
Encoded date : UTC 2020-07-17 16:35:14
Writing application : mkvmerge v45.0.0 ('Heaven in Pennies') 64-bit
Writing library : libebml v1.3.10 + libmatroska v1.5.2

Video
ID : 1
Format : VC-1
Format profile : Advanced@L3
Codec ID : V_MS/VFW/FOURCC / WVC1
Codec ID/Hint : Microsoft
Duration : 2 h 7 min
Bit rate : 26.3 Mb/s
Width : 1 920 pixels
Height : 1 080 pixels
Display aspect ratio : 16:9
Frame rate mode : Constant
Frame rate : 24.000 FPS
Color space : YUV
Chroma subsampling : 4:2:0
Bit depth : 8 bits
Scan type : Progressive
Compression mode : Lossy
Bits/(Pixel*Frame) : 0.529
Stream size : 23.4 GiB (84%)
Title : VC-1 Video / 26320 kbps / 1080p / 24 fps / 16:9 / Advanced Profile 3
Language : English
Default : Yes
Forced : No

Audio #1
ID : 2
Format : DTS XLL
Format/Info : Digital Theater Systems
Commercial name : DTS-HD Master Audio
Codec ID : A_DTS
Duration : 2 h 7 min
Bit rate mode : Variable
Bit rate : 2 125 kb/s
Channel(s) : 6 channels
Channel layout : C L R Ls Rs LFE
Sampling rate : 48.0 kHz
Frame rate : 93.750 FPS (512 SPF)
Bit depth : 16 bits
Compression mode : Lossless
Stream size : 1.89 GiB (7%)
Title : DTS-HD Master Audio / 5.1 / 48 kHz / 2125 kbps / 16-bit
Language : English
Default : Yes
Forced : No

Audio #2
ID : 3
Format : DTS
Format/Info : Digital Theater Systems
Codec ID : A_DTS
Duration : 2 h 7 min
Bit rate mode : Constant
Bit rate : 1 509 kb/s
Channel(s) : 2 channels
Channel layout : L R
Sampling rate : 48.0 kHz
Frame rate : 93.750 FPS (512 SPF)
Bit depth : 24 bits
Compression mode : Lossy
Stream size : 1.34 GiB (5%)
Title : Commentary by director Tony Scott and writer Richard Kelly
Language : English
Default : No
Forced : No

Audio #3
ID : 4
Format : DTS
Format/Info : Digital Theater Systems
Codec ID : A_DTS
Duration : 2 h 7 min
Bit rate mode : Constant
Bit rate : 1 509 kb/s
Channel(s) : 2 channels
Channel layout : L R
Sampling rate : 48.0 kHz
Frame rate : 93.750 FPS (512 SPF)
Bit depth : 24 bits
Compression mode : Lossy
Stream size : 1.34 GiB (5%)
Title : Alternate audio track with development meetings between director, writer, producer and actor Tom Waits
Language : English
Default : No
Forced : No

Text
ID : 5
Format : PGS
Codec ID : S_HDMV/PGS
Codec ID/Info : Picture based subtitle format used on BDs/HD-DVDs
Duration : 2 h 1 min
Bit rate : 31.6 kb/s
Count of elements : 3111
Stream size : 27.4 MiB (0%)
Title : SDH
Language : English
Default : No
Forced : No

Menu
00:00:00.000 : en:A Few Questions
00:06:53.666 : en:Main Titles
00:08:55.541 : en:DMV
00:13:46.666 : en:England to L.A.
00:18:50.875 : en:The $99 Seminar
00:24:20.583 : en:First Raid
00:30:15.291 : en:Dysfunctional Family
00:37:19.500 : en:Reality TV
00:44:57.291 : en:Brian and Ian
00:48:38.791 : en:Lateesha
00:53:54.791 : en:10 Million
00:59:56.500 : en:Bounty Squad
01:06:49.375 : en:Delivery to Needles
01:11:24.750 : en:Real and Fake
01:22:48.625 : en:Retrieval
01:27:47.166 : en:Desert Trip
01:32:01.000 : en:Wanderer
01:37:04.333 : en:Las Vegas
01:44:17.291 : en:The Stratosphere
01:52:04.375 : en:Heads or Tails
01:59:00.916 : en:End Titles

Files