Billy Connolly Big Banana Feet 1976 1080p BluRay REMUX AVC FLAC2 0-MANiAC

Follows comedian Billy Connolly on his 1975 tour of Ireland.

Year: 1977
Duration: 77 min
Release date: Wednesday 24th August 1977
Genre: Documentary, Comedy, Music

Rating

8.1/10
(61 Votes)

0

Your Rating

Stars:
Billy Connolly

Filling a .

https://www.imdb.com/title/tt0231265/

Follows comedian Billy Connolly on his 1975 tour of Ireland.

Complete Mediainfo:

General
Unique ID : 156032221904929866549993561389258445123 (0x7562B67D0C91D46833DBB11498FF1143)
Complete name : /sdb/ezko/data/rtorrent/Billy.Connolly.Big.Banana.Feet.1976.1080p.BluRay.REMUX.AVC.FLAC2.0-MANiAC.mkv
Format : Matroska
Format version : Version 4
File size : 20.6 GiB
Duration : 1 h 17 min
Overall bit rate mode : Variable
Overall bit rate : 37.9 Mb/s
Movie name : Billy Connolly: Big Banana Feet (1976)
Encoded date : UTC 2024-06-01 18:29:35
Writing application : mkvmerge v83.0 ('Circle Of Friends') 64-bit
Writing library : libebml v1.4.5 + libmatroska v1.7.1
IMDB : tt0231265
TMDB : movie/33023

Video
ID : 1
Format : AVC
Format/Info : Advanced Video Codec: Format profile : High@L4.1
Format settings : CABAC / 3 Ref Frames
Format settings, CABAC : Yes
Format settings, Reference frames : 3 frames
Codec ID : V_MPEG4/ISO/AVC
Duration : 1 h 17 min
Bit rate mode : Variable
Bit rate : 37.4 Mb/s
Maximum bit rate : 38.0 Mb/s
Width : 1 920 pixels
Height : 1 080 pixels
Display aspect ratio : 16:9
Frame rate mode : Constant
Frame rate : 24.000 FPS
Color space : YUV
Chroma subsampling : 4:2:0
Bit depth : 8 bits
Scan type : Progressive
Bits/(Pixel*Frame) : 0.752
Stream size : 20.3 GiB (99%)
Language : English
Default : Yes
Forced : No
Color range : Limited
Color primaries : BT.709
Transfer characteristics : BT.709
Matrix coefficients : BT.709

Audio
ID : 2
Format : FLAC
Format/Info : Free Lossless Audio Codec: Codec ID : A_FLAC
Duration : 1 h 17 min
Bit rate mode : Variable
Bit rate : 439 kb/s
Channel(s) : 2 channels
Channel layout : L R
Sampling rate : 48.0 kHz
Frame rate : 41.667 FPS (1152 SPF)
Bit depth : 16 bits
Compression mode : Lossless
Stream size : 244 MiB (1%)
Title : Stereo
Language : English
Default : Yes
Forced : No

Text
ID : 3
Format : PGS
Muxing mode : zlib
Codec ID : S_HDMV/PGS
Codec ID/Info : Picture based subtitle format used on BDs/HD-DVDs
Duration : 1 h 17 min
Bit rate : 45.6 kb/s
Count of elements : 2184
Stream size : 25.2 MiB (0%)
Language : English
Default : No
Forced : No

Menu
00:00:00.000 : :Chapter 01
00:00:19.875 : :Chapter 02
00:07:20.458 : :Chapter 03
00:16:19.416 : :Chapter 04
00:23:05.625 : :Chapter 05
00:30:13.625 : :Chapter 06
00:39:05.458 : :Chapter 07
00:47:18.291 : :Chapter 08
00:52:37.916 : :Chapter 09
00:59:42.750 : :Chapter 10
01:10:53.583 : :Chapter 11

Files