How Green Was My Valley 1941 1080p BluRay REMUX AVC DTS-HD MA 5 1-CRANiUM

Life is hard in a Welsh mining town and no less so for the Morgan family. Seen through the eyes of the family's youngest...

Year: 1941
Duration: 118 min
Release date: Thursday 9th April 1942
Genre: Drama, Family

Rating

7.8/10
(10066 Votes)

0

Your Rating

Stars:
Walter Pidgeon, Maureen O'Hara, Anna Lee, Donald Crisp

General
Unique ID : 252268571251900668876902460206365046221 (0xBDC928D7A0184D8767D988AEA80075CD)
Complete name : How.Green.Was.My.Valley.1941.1080p.BluRay.REMUX.AVC.DTS-HD.MA.5.1-CRANiUM.mkv
Format : Matroska
Format version : Version 4
File size : 32.0 GiB
Duration : 1 h 58 min
Overall bit rate mode : Variable
Overall bit rate : 38.7 Mb/s
Movie name : How Green Was My Valley (1941)
Encoded date : UTC 2021-04-02 19:27:53
Writing application : mkvmerge v55.0.0 ('Waiting For Space') 64-bit
Writing library : libebml v1.4.2 + libmatroska v1.6.4
IMDB : tt0033729
TMDB : movie/43266

Video
ID : 1
Format : AVC
Format/Info : Advanced Video Codec: Format profile : High@L4.1
Format settings : CABAC / 4 Ref Frames
Format settings, CABAC : Yes
Format settings, Reference frames : 4 frames
Codec ID : V_MPEG4/ISO/AVC
Duration : 1 h 58 min
Bit rate mode : Variable
Bit rate : 35.5 Mb/s
Maximum bit rate : 37.0 Mb/s
Width : 1 920 pixels
Height : 1 080 pixels
Display aspect ratio : 16:9
Frame rate mode : Constant
Frame rate : 23.976 (24000/1001) FPS
Color space : YUV
Chroma subsampling : 4:2:0
Bit depth : 8 bits
Scan type : Progressive
Bits/(Pixel*Frame) : 0.713
Stream size : 29.4 GiB (92%)
Title : MPEG-4 AVC Video / 35733 kbps / 1080p / 23.976 fps / 16:9 / High Profile 4.1
Default : Yes
Forced : No

Audio #1
ID : 2
Format : DTS XLL
Format/Info : Digital Theater Systems
Commercial name : DTS-HD Master Audio
Codec ID : A_DTS
Duration : 1 h 58 min
Bit rate mode : Variable
Bit rate : 2 787 kb/s
Channel(s) : 6 channels
Channel layout : C L R Ls Rs LFE
Sampling rate : 48.0 kHz
Frame rate : 93.750 FPS (512 SPF)
Bit depth : 24 bits
Compression mode : Lossless
Stream size : 2.31 GiB (7%)
Title : English / DTS-HD Master Audio / 5.1 / 48 kHz / 2787 kbps / 24-bit
Language : English
Default : Yes
Forced : No

Audio #2
ID : 3
Format : AC-3
Format/Info : Audio Coding 3
Commercial name : Dolby Digital
Codec ID : A_AC3
Duration : 1 h 58 min
Bit rate mode : Constant
Bit rate : 192 kb/s
Channel(s) : 1 channel
Channel layout : C
Sampling rate : 48.0 kHz
Frame rate : 31.250 FPS (1536 SPF)
Compression mode : Lossy
Stream size : 163 MiB (0%)
Title : Original Mono Audio / Dolby Digital Audio / 1.0 / 48 kHz / 192 kbps / DN -31dB
Language : English
Service kind : Complete Main
Default : No
Forced : No

Audio #3
ID : 4
Format : AC-3
Format/Info : Audio Coding 3
Commercial name : Dolby Digital
Codec ID : A_AC3
Duration : 1 h 58 min
Bit rate mode : Constant
Bit rate : 224 kb/s
Channel(s) : 2 channels
Channel layout : L R
Sampling rate : 48.0 kHz
Frame rate : 31.250 FPS (1536 SPF)
Compression mode : Lossy
Stream size : 190 MiB (1%)
Title : Commentary featuring actor Anna Lee Nathan and film historian Joseph McBride
Language : English
Service kind : Complete Main
Default : No
Forced : No

Text
ID : 5
Format : PGS
Muxing mode : zlib
Codec ID : S_HDMV/PGS
Codec ID/Info : Picture based subtitle format used on BDs/HD-DVDs
Duration : 1 h 58 min
Bit rate : 29.8 kb/s
Count of elements : 2698
Stream size : 25.2 MiB (0%)
Language : English
Default : No
Forced : No

Menu
00:00:00.000 : en:Chapter 01
00:01:03.480 : en:Chapter 02
00:11:48.958 : en:Chapter 03
00:16:51.427 : en:Chapter 04
00:32:38.582 : en:Chapter 05
00:42:22.540 : en:Chapter 06
00:56:46.403 : en:Chapter 07
01:06:30.403 : en:Chapter 08
01:22:38.787 : en:Chapter 09
01:32:57.197 : en:Chapter 10

Files