Gangster No 1 2000 BluRay Remux 1080i AVC DTS-HD MA 5 1 DIESEL

Chronicles the rise and fall of a prominent, and particularly ruthless English gangster.

Year: 2000
Duration: 103 min
Release date: Wednesday 18th July 2001
Genre: Crime, Drama, Thriller

Rating

6.8/10
(11994 Votes)

0

Your Rating

Stars:
Malcolm McDowell, David Thewlis, Paul Bettany, Saffron Burrows, Kenneth Cranham, Jamie Foreman, Eddie Marsan, Andrew Lincoln

General
Unique ID : 145960449083373530951360131900997283981 (0x6DCEF5BFD893EC943939DA7D17F6B08D)
Complete name : Gangster.No.1.2000.BluRay.Remux.1080i.AVC.DTS-HD.MA.5.1-DIESEL.mkv
Format : Matroska
Format version : Version 4
File size : 25.6 GiB
Duration : 1 h 42 min
Overall bit rate mode : Variable
Overall bit rate : 35.7 Mb/s
Frame rate : 29.970 FPS
Encoded date : 2018-06-28 23:56:05 UTC
Writing application : mkvmerge v24.0.0 ('Beyond The Pale') 64-bit
Writing library : libebml v1.3.6 + libmatroska v1.4.9

Video
ID : 1
Format : AVC
Format/Info : Advanced Video Codec: Format profile : High@L4.1
Format settings : CABAC / 4 Ref Frames
Format settings, CABAC : Yes
Format settings, Reference frames : 4 frames
Codec ID : V_MPEG4/ISO/AVC
Duration : 1 h 42 min
Bit rate mode : Variable
Maximum bit rate : 33.0 Mb/s
Width : 1 920 pixels
Height : 1 080 pixels
Display aspect ratio : 16:9
Frame rate mode : Constant
Frame rate : 29.970 (30000/1001) FPS
Color space : YUV
Chroma subsampling : 4:2:0
Bit depth : 8 bits
Scan type : MBAFF
Scan type, store method : Interleaved fields
Scan order : Top Field First
Title : MPEG-4 AVC Video / 32068 kbps / 1080i / 29.970 fps / 16:9 / High Profile 4.1
Language : English
Default : Yes
Forced : No
Color range : Limited
Color primaries : BT.709
Transfer characteristics : BT.709
Matrix coefficients : BT.709

Audio #1
ID : 2
Format : DTS XLL
Format/Info : Digital Theater Systems
Commercial name : DTS-HD Master Audio
Codec ID : A_DTS
Duration : 1 h 42 min
Bit rate mode : Variable
Channel(s) : 6 channels
Channel layout : C L R Ls Rs LFE
Sampling rate : 48.0 kHz
Frame rate : 93.750 FPS (512 SPF)
Bit depth : 24 bits
Compression mode : Lossless
Title : DTS-HD Master Audio / 5.1 / 48 kHz / 3549 kbps / 24-bit
Language : English
Default : Yes
Forced : No

Audio #2
ID : 3
Format : AC-3
Format/Info : Audio Coding 3
Commercial name : Dolby Digital
Codec ID : A_AC3
Duration : 1 h 42 min
Bit rate mode : Constant
Bit rate : 224 kb/s
Channel(s) : 2 channels
Channel layout : L R
Sampling rate : 48.0 kHz
Frame rate : 31.250 FPS (1536 SPF)
Compression mode : Lossy
Stream size : 165 MiB (1%)
Title : Commentary with director Paul McGuigan / Dolby Digital Audio / 2.0 / 48 kHz / 224 kbps
Language : English
Service kind : Complete Main
Default : No
Forced : No

Audio #3
ID : 4
Format : AC-3
Format/Info : Audio Coding 3
Commercial name : Dolby Digital
Codec ID : A_AC3
Duration : 1 h 42 min
Bit rate mode : Constant
Bit rate : 224 kb/s
Channel(s) : 2 channels
Channel layout : L R
Sampling rate : 48.0 kHz
Frame rate : 31.250 FPS (1536 SPF)
Compression mode : Lossy
Stream size : 165 MiB (1%)
Title : Isolated Score / Dolby Digital Audio / 2.0 / 48 kHz / 224 kbps
Language : zxx
Service kind : Complete Main
Default : No
Forced : No

Text #1
ID : 5
Format : UTF-8
Codec ID : S_TEXT/UTF8
Codec ID/Info : UTF-8 Plain Text
Language : English
Default : No
Forced : No

Text #2
ID : 6
Format : PGS
Muxing mode : zlib
Codec ID : S_HDMV/PGS
Codec ID/Info : Picture based subtitle format used on BDs/HD-DVDs
Title : SDH
Language : English
Default : No
Forced : No

Menu
00:00:00.000 : en:The Good Life
00:06:26.386 : en:A Class Act
00:10:33.032 : en:Suited Up
00:15:40.940 : en:The Club's on Fire
00:20:44.243 : en:Lennie Taylor
00:29:10.148 : en:K for Karen
00:37:58.276 : en:Poor Little Eddie
00:46:12.770 : en:Roland's Missing
00:52:20.537 : en:What's Your Problem?
00:57:06.423 : en:A Trail of Blood
00:59:35.038 : en:Bye, Bye Lennie
01:11:44.300 : en:Long Live the King
01:17:54.670 : en:Freddie's Out
01:21:50.906 : en:Stay Away from Him
01:25:36.131 : en:The Better Man
01:36:30.785 : en:I'm Number One

Files