Redbelt 2008 BluRay Remux 1080p AVC TrueHD 5 1 HiFi

A fateful event leads to a job in the film business for top mixed-martial arts instructor Mike Terry. Though he refuses to participate in prize bouts, circumstances conspire to force him to consider entering such a competition.

Year: 2008
Duration: 99 min
Release date: Friday 9th May 2008
Genre: Drama, Sport

Rating

6.8/10
(15269 Votes)

0

Your Rating

Stars:
Chiwetel Ejiofor, Tim Allen, Emily Mortimer, Max Martini

General
Unique ID : 195278752044904209366799339176710769459 (0x92E951D1BCB6AB69A22B7DE37C7E0B33)
Complete name : Redbelt.2008.BluRay.Remux.1080p.AVC.TrueHD.5.1-HiFi.mkv
Format : Matroska
Format version : Version 4
File size : 21.6 GiB
Duration : 1 h 39 min
Overall bit rate mode : Variable
Overall bit rate : 31.2 Mb/s
Frame rate : 23.976 FPS
Movie name : Redbelt (2008)
Encoded date : 2016-07-08 05:46:05 UTC
Writing application : mkvmerge v9.1.0 ('Little Earthquakes') 64bit
Writing library : libebml v1.3.3 + libmatroska v1.4.4

Video
ID : 1
Format : AVC
Format/Info : Advanced Video Codec: Format profile : High@L4.1
Format settings : CABAC / 4 Ref Frames
Format settings, CABAC : Yes
Format settings, Reference frames : 4 frames
Codec ID : V_MPEG4/ISO/AVC
Duration : 1 h 39 min
Bit rate mode : Variable
Bit rate : 28.9 Mb/s
Maximum bit rate : 31.0 Mb/s
Width : 1 920 pixels
Height : 1 080 pixels
Display aspect ratio : 16:9
Frame rate mode : Constant
Frame rate : 23.976 (24000/1001) FPS
Color space : YUV
Chroma subsampling : 4:2:0
Bit depth : 8 bits
Scan type : Progressive
Bits/(Pixel*Frame) : 0.582
Stream size : 20.0 GiB (93%)
Title : MPEG-4 AVC Video / 28964 kbps / 1080p / 23.976 fps / 16:9 / High Profile 4.1
Language : English
Default : Yes
Forced : No
Color range : Limited
Color primaries : BT.709
Transfer characteristics : BT.709
Matrix coefficients : BT.709

Audio #1
ID : 2
Format : MLP FBA
Format/Info : Meridian Lossless Packing FBA
Commercial name : Dolby TrueHD
Codec ID : A_TRUEHD
Duration : 1 h 39 min
Bit rate mode : Variable
Bit rate : 1 191 kb/s
Maximum bit rate : 2 772 kb/s
Channel(s) : 6 channels
Channel layout : L R C LFE Ls Rs
Sampling rate : 48.0 kHz
Frame rate : 1 200.000 FPS (40 SPF)
Compression mode : Lossless
Stream size : 845 MiB (4%)
Title : Dolby TrueHD Audio / 5.1 / 48 kHz / 1191 kbps / 16-bit
Language : English
Default : Yes
Forced : No

Audio #2
ID : 3
Format : AC-3
Format/Info : Audio Coding 3
Commercial name : Dolby Digital
Codec ID : A_AC3
Duration : 1 h 39 min
Bit rate mode : Constant
Bit rate : 640 kb/s
Channel(s) : 6 channels
Channel layout : L R C LFE Ls Rs
Sampling rate : 48.0 kHz
Frame rate : 31.250 FPS (1536 SPF)
Compression mode : Lossy
Stream size : 454 MiB (2%)
Title : Compatibility Track / Dolby Digital Audio / 5.1 / 48 kHz / 640 kbps
Language : English
Service kind : Complete Main
Default : No
Forced : No

Audio #3
ID : 4
Format : AC-3
Format/Info : Audio Coding 3
Commercial name : Dolby Digital
Format settings : Dolby Surround
Codec ID : A_AC3
Duration : 1 h 39 min
Bit rate mode : Constant
Bit rate : 192 kb/s
Channel(s) : 2 channels
Channel layout : L R
Sampling rate : 48.0 kHz
Frame rate : 31.250 FPS (1536 SPF)
Compression mode : Lossy
Stream size : 136 MiB (1%)
Title : Commentary with Director David Mamet and Actor Randy Couture / Dolby Digital Audio / 2.0 / 48 kHz / 192 kbps
Language : English
Service kind : Complete Main
Default : No
Forced : No

Text #1
ID : 5
Format : PGS
Muxing mode : zlib
Codec ID : S_HDMV/PGS
Codec ID/Info : Picture based subtitle format used on BDs/HD-DVDs
Duration : 1 h 27 min
Bit rate : 17.0 kb/s
Frame rate : 0.465 FPS
Count of elements : 2428
Stream size : 10.6 MiB (0%)
Language : English
Default : No
Forced : No

Text #2
ID : 6
Format : PGS
Muxing mode : zlib
Codec ID : S_HDMV/PGS
Codec ID/Info : Picture based subtitle format used on BDs/HD-DVDs
Duration : 1 h 34 min
Bit rate : 10.3 kb/s
Frame rate : 0.455 FPS
Count of elements : 2590
Stream size : 6.96 MiB (0%)
Title : SDH
Language : English
Default : No
Forced : No

Text #3
ID : 7
Format : PGS
Muxing mode : zlib
Codec ID : S_HDMV/PGS
Codec ID/Info : Picture based subtitle format used on BDs/HD-DVDs
Duration : 1 h 27 min
Bit rate : 12.7 kb/s
Frame rate : 0.453 FPS
Count of elements : 2368
Stream size : 7.89 MiB (0%)
Language : Arabic
Default : No
Forced : No

Text #4
ID : 8
Format : PGS
Muxing mode : zlib
Codec ID : S_HDMV/PGS
Codec ID/Info : Picture based subtitle format used on BDs/HD-DVDs
Duration : 1 h 27 min
Bit rate : 22.1 kb/s
Frame rate : 0.475 FPS
Count of elements : 2482
Stream size : 13.8 MiB (0%)
Language : Chinese
Default : No
Forced : No

Text #5
ID : 9
Format : PGS
Muxing mode : zlib
Codec ID : S_HDMV/PGS
Codec ID/Info : Picture based subtitle format used on BDs/HD-DVDs
Duration : 1 h 27 min
Bit rate : 13.0 kb/s
Frame rate : 0.356 FPS
Count of elements : 1864
Stream size : 8.08 MiB (0%)
Language : Dutch
Default : No
Forced : No

Text #6
ID : 10
Format : PGS
Muxing mode : zlib
Codec ID : S_HDMV/PGS
Codec ID/Info : Picture based subtitle format used on BDs/HD-DVDs
Duration : 1 h 36 min
Bit rate : 23.0 kb/s
Frame rate : 0.561 FPS
Count of elements : 3238
Stream size : 15.9 MiB (0%)
Title : Commentary
Language : Dutch
Default : No
Forced : No

Text #7
ID : 11
Format : PGS
Muxing mode : zlib
Codec ID : S_HDMV/PGS
Codec ID/Info : Picture based subtitle format used on BDs/HD-DVDs
Duration : 1 h 37 min
Bit rate : 11.7 kb/s
Frame rate : 0.392 FPS
Count of elements : 2286
Stream size : 8.11 MiB (0%)
Language : French
Default : No
Forced : No

Text #8
ID : 12
Format : PGS
Muxing mode : zlib
Codec ID : S_HDMV/PGS
Codec ID/Info : Picture based subtitle format used on BDs/HD-DVDs
Duration : 1 h 36 min
Bit rate : 23.4 kb/s
Frame rate : 0.620 FPS
Count of elements : 3578
Stream size : 16.1 MiB (0%)
Title : Commentary
Language : French
Default : No
Forced : No

Text #9
ID : 13
Format : PGS
Muxing mode : zlib
Codec ID : S_HDMV/PGS
Codec ID/Info : Picture based subtitle format used on BDs/HD-DVDs
Duration : 1 h 27 min
Bit rate : 17.1 kb/s
Frame rate : 0.455 FPS
Count of elements : 2388
Stream size : 10.7 MiB (0%)
Language : Indonesian
Default : No
Forced : No

Text #10
ID : 14
Format : PGS
Muxing mode : zlib
Codec ID : S_HDMV/PGS
Codec ID/Info : Picture based subtitle format used on BDs/HD-DVDs
Duration : 1 h 38 min
Bit rate : 9 212 b/s
Frame rate : 0.394 FPS
Count of elements : 2334
Stream size : 6.50 MiB (0%)
Language : Korean
Default : No
Forced : No

Text #11
ID : 15
Format : PGS
Muxing mode : zlib
Codec ID : S_HDMV/PGS
Codec ID/Info : Picture based subtitle format used on BDs/HD-DVDs
Duration : 1 h 38 min
Bit rate : 12.4 kb/s
Frame rate : 0.409 FPS
Count of elements : 2420
Stream size : 8.74 MiB (0%)
Language : Portuguese
Default : No
Forced : No

Text #12
ID : 16
Format : PGS
Muxing mode : zlib
Codec ID : S_HDMV/PGS
Codec ID/Info : Picture based subtitle format used on BDs/HD-DVDs
Duration : 1 h 38 min
Bit rate : 24.6 kb/s
Frame rate : 0.598 FPS
Count of elements : 3544
Stream size : 17.4 MiB (0%)
Title : Commentary
Language : Portuguese
Default : No
Forced : No

Text #13
ID : 17
Format : PGS
Muxing mode : zlib
Codec ID : S_HDMV/PGS
Codec ID/Info : Picture based subtitle format used on BDs/HD-DVDs
Duration : 1 h 38 min
Bit rate : 13.3 kb/s
Frame rate : 0.403 FPS
Count of elements : 2384
Stream size : 9.41 MiB (0%)
Language : Spanish
Default : No
Forced : No

Text #14
ID : 18
Format : PGS
Muxing mode : zlib
Codec ID : S_HDMV/PGS
Codec ID/Info : Picture based subtitle format used on BDs/HD-DVDs
Duration : 1 h 36 min
Bit rate : 23.3 kb/s
Frame rate : 0.629 FPS
Count of elements : 3632
Stream size : 16.0 MiB (0%)
Title : Commentary
Language : Spanish
Default : No
Forced : No

Text #15
ID : 19
Format : PGS
Muxing mode : zlib
Codec ID : S_HDMV/PGS
Codec ID/Info : Picture based subtitle format used on BDs/HD-DVDs
Duration : 1 h 27 min
Bit rate : 15.4 kb/s
Frame rate : 0.452 FPS
Count of elements : 2364
Stream size : 9.61 MiB (0%)
Language : Thai
Default : No
Forced : No

Menu
00:00:00.000 : en:Chapter 1
00:06:32.976 : en:Chapter 2
00:11:29.272 : en:Chapter 3
00:17:09.737 : en:Chapter 4
00:25:20.269 : en:Chapter 5
00:31:20.962 : en:Chapter 6
00:39:35.748 : en:Chapter 7
00:44:32.545 : en:Chapter 8
00:52:00.659 : en:Chapter 9
00:57:51.968 : en:Chapter 10
01:05:24.462 : en:Chapter 11
01:15:34.238 : en:Chapter 12
01:19:37.523 : en:Chapter 13
01:24:44.788 : en:Chapter 14
01:29:35.287 : en:Chapter 15
01:32:25.874 : en:Chapter 16

Files