The Bells Go Down 1943 1080p BluRay REMUX AVC FLAC 2 0-TRiToN

Comedian Tommy Trinder plays it straight in this tribute to the wartime AFS (Auxiliary Fire Service), the dedicated band who kept the fires of London under control during the blitz and fire bombings of WWII.

Year: 1943
Duration: 90 min
Release date: Monday 17th May 1943
Genre: Drama, War

Rating

6.7/10
(229 Votes)

0

Your Rating

Stars:
Tommy Trinder, James Mason, Philip Friend, Mervyn Johns, William Hartnell, Finlay Currie, Philippa Hiatt, Meriel Forbes

Release...: The Bells Go Down 1943 1080p BluRay REMUX AVC FLAC 2.0-TRiToN
Video.....: MPEG-4 AVC Video / 37998 kbps / 1080p / 24 fps / 16:9 / High Profile 4.1
Audio.....: English / FLAC Audio / 2.0 / 48 kHz / 619 kbps / 24-bit
Source....: The Bells Go Down 1943 1080p Blu-ray AVC LPCM 2.0-KIMI (Thanks!)
Notes.....: Enjoy.

eac3to log:
eac3to v3.34
command line: "e;eac3to.exe"e; BDMV 1) 1: chapters.txt 2: video.h264 3: english.flac 4: english.sup -log=log.txt -progressnumbers
------------------------------------------------------------------------------
M2TS, 1 video track, 1 audio track, 1 subtitle track, 1:29:11, 24p
1: Chapters, 12 chapters
2: h264/AVC, 1080p24 (16:9)
3: RAW/PCM, English, 2.0 channels, 24 bits, 48kHz
4: Subtitle (PGS), English
[v02] The video framerate is correct, but rather unusual.
Creating file "e;chapters.txt"e;...
[v02] Extracting video track number 2...
[s04] Extracting subtitle track number 4...
[a03] Extracting audio track number 3...
[a03] Reading RAW/PCM...
[a03] Swapping endian...
[a03] Encoding FLAC with libFlac...
[v02] Creating file "e;video.h264"e;...
[a03] Creating file "e;english.flac"e;...
[s04] Creating file "e;english.sup"e;...
[a03] The original audio track has a constant bit depth of 24 bits.
Video track 2 contains 128426 frames.
Subtitle track 4 contains 1330 captions.
eac3to processing took 3 minutes, 57 seconds.
Done.

MediaInfo:
General
Unique ID : 228238387805876182448144985578544253460 (0xABB51D535F24248930CCD001FB6F4A14)
Complete name : The.Bells.Go.Down.1943.1080p.BluRay.REMUX.AVC.FLAC.2.0-TRiToN.mkv
Format : Matroska
Format version : Version 4
File size : 24.0 GiB
Duration : 1 h 29 min
Overall bit rate mode : Variable
Overall bit rate : 38.5 Mb/s
Frame rate : 24.000 FPS
Movie name : The Bells Go Down (1943)
Encoded date : 2024-07-07 20:23:44 UTC
Writing application : mkvmerge v85.0 ('Shame For You') 64-bit
Writing library : libebml v1.4.5 + libmatroska v1.7.1
IMDB : tt0035671
TMDB : movie/238929

Video
ID : 1
Format : AVC
Format/Info : Advanced Video Codec: Format profile : High@L4.1
Format settings : CABAC / 4 Ref Frames
Format settings, CABAC : Yes
Format settings, Reference frames : 4 frames
Format settings, Slice count : 4 slices per frame
Codec ID : V_MPEG4/ISO/AVC
Duration : 1 h 29 min
Bit rate mode : Variable
Bit rate : 37.8 Mb/s
Maximum bit rate : 39.0 Mb/s
Width : 1 920 pixels
Height : 1 080 pixels
Display aspect ratio : 16:9
Frame rate mode : Constant
Frame rate : 24.000 FPS
Color space : YUV
Chroma subsampling : 4:2:0
Bit depth : 8 bits
Scan type : Progressive
Bits/(Pixel*Frame) : 0.760
Time code of first frame : 09:59:59:00
Stream size : 23.5 GiB (98%)
Title : MPEG-4 AVC Video / 37998 kbps / 1080p / 24 fps / 16:9 / High Profile 4.1
Language : zxx
Default : Yes
Forced : No

Audio
ID : 2
Format : FLAC
Format/Info : Free Lossless Audio Codec: Codec ID : A_FLAC
Duration : 1 h 29 min
Bit rate mode : Variable
Bit rate : 619 kb/s
Channel(s) : 2 channels
Channel layout : L R
Sampling rate : 48.0 kHz
Frame rate : 11.719 FPS (4096 SPF)
Bit depth : 24 bits
Compression mode : Lossless
Stream size : 395 MiB (2%)
Title : FLAC Audio / 2.0 / 48 kHz / 619 kbps / 24-bit
Writing library : libFLAC 1.4.3 (2023-06-23)
Language : English
Default : Yes
Forced : No
MD5 of the unencoded content : 509329A889169C8DFCDAAFDD9B6E9C8F

Text
ID : 3
Format : PGS
Codec ID : S_HDMV/PGS
Codec ID/Info : Picture based subtitle format used on BDs/HD-DVDs
Duration : 1 h 28 min
Bit rate : 42.4 kb/s
Frame rate : 0.503 FPS
Count of elements : 2660
Stream size : 26.7 MiB (0%)
Title : SDH
Language : English
Default : No
Forced : No

Menu
00:00:00.000 : en:Chapter 01
00:06:02.125 : en:Chapter 02
00:13:53.292 : en:Chapter 03
00:19:55.167 : en:Chapter 04
00:28:27.792 : en:Chapter 05
00:35:18.667 : en:Chapter 06
00:42:49.500 : en:Chapter 07
00:50:14.542 : en:Chapter 08
00:59:40.792 : en:Chapter 09
01:07:05.375 : en:Chapter 10
01:15:52.875 : en:Chapter 11
01:22:52.375 : en:Chapter 12

Files