The Golden Spoon S01 1080p DSNP WEB-DL AAC2 0 H 264-ECLiPSE

Adapted from the webtoon "e;The Golden Spoon"e; (금수저) by HD3.An adventure of a boy who stumbles across a magical golden spoon that allows him to switch with the rich parents of another boy. Would you trade your poor but loving family for a life of riches? When Seung Cheon gets his hands on a magical spoon that allows him to switch lives with his rich best friend, he thinks it's a no-brainer. But life-altering decisions are always accompanied by a sense of doubt, and with only three chances to change his mind, Seung Cheon has to decide which of his two possible futures is worth keeping. 

Genre: Fantasy, Romance, Thriller
Stars: Yook Sung Jae, Lee Jong Won, Jung Chae Yun, Yun Woo, Choi Dae Chul, Choi Won Young, Son Jong Hak, Jang Hyuk Jin

General
Unique ID : 274313041888967062477598839191882151169 (0xCE5EC5289D881D51E453957B74CBB501)
Complete name : The.Golden.Spoon.S01E01.1080p.DSNP.WEB-DL.AAC2.0.H.264-ECLiPSE.mkv
Format : Matroska
Format version : Version 4
File size : 3.17 GiB
Duration : 1 h 18 min
Overall bit rate mode : Variable
Overall bit rate : 5 798 kb/s
Writing application : mkvmerge v70.0.0 ('Caught A Lite Sneeze') 64-bit
Writing library : libebml v1.4.2 + libmatroska v1.6.4

Video
ID : 1
Format : AVC
Format/Info : Advanced Video Codec: Format profile : High@L4
Format settings : CABAC / 4 Ref Frames
Format settings, CABAC : Yes
Format settings, Reference frames : 4 frames
Codec ID : V_MPEG4/ISO/AVC
Duration : 1 h 18 min
Bit rate mode : Variable
Bit rate : 5 670 kb/s
Maximum bit rate : 12.7 Mb/s
Width : 1 920 pixels
Height : 1 080 pixels
Display aspect ratio : 16:9
Frame rate mode : Constant
Frame rate : 23.976 (24000/1001) FPS
Color space : YUV
Chroma subsampling : 4:2:0
Bit depth : 8 bits
Scan type : Progressive
Bits/(Pixel*Frame) : 0.114
Stream size : 3.10 GiB (98%)
Default : Yes
Forced : No
Color range : Limited
Color primaries : BT.709
Transfer characteristics : BT.709
Matrix coefficients : BT.709

Audio
ID : 2
Format : AAC LC
Format/Info : Advanced Audio Codec Low Complexity
Codec ID : A_AAC-2
Duration : 1 h 18 min
Bit rate : 125 kb/s
Channel(s) : 2 channels
Channel layout : L R
Sampling rate : 48.0 kHz
Frame rate : 46.875 FPS (1024 SPF)
Compression mode : Lossy
Stream size : 70.3 MiB (2%)
Language : Korean
Default : Yes
Forced : No

Text #1
ID : 3
Format : UTF-8
Codec ID : S_TEXT/UTF8
Codec ID/Info : UTF-8 Plain Text
Duration : 1 h 17 min
Bit rate : 53 b/s
Frame rate : 0.203 FPS
Count of elements : 947
Stream size : 30.4 KiB (0%)
Language : Korean
Default : No
Forced : No

Text #2
ID : 4
Format : UTF-8
Codec ID : S_TEXT/UTF8
Codec ID/Info : UTF-8 Plain Text
Duration : 1 h 18 min
Bit rate : 74 b/s
Frame rate : 0.249 FPS
Count of elements : 1171
Stream size : 42.6 KiB (0%)
Title : SDH
Language : Korean
Default : No
Forced : No

Text #3
ID : 5
Format : UTF-8
Codec ID : S_TEXT/UTF8
Codec ID/Info : UTF-8 Plain Text
Duration : 1 h 17 min
Bit rate : 52 b/s
Frame rate : 0.220 FPS
Count of elements : 1026
Stream size : 30.1 KiB (0%)
Language : English
Default : No
Forced : No

Text #4
ID : 6
Format : UTF-8
Codec ID : S_TEXT/UTF8
Codec ID/Info : UTF-8 Plain Text
Duration : 1 h 18 min
Bit rate : 58 b/s
Frame rate : 0.243 FPS
Count of elements : 1141
Stream size : 33.3 KiB (0%)
Title : SDH
Language : English
Default : No
Forced : No

Text #5
ID : 7
Format : UTF-8
Codec ID : S_TEXT/UTF8
Codec ID/Info : UTF-8 Plain Text
Duration : 1 h 17 min
Bit rate : 47 b/s
Frame rate : 0.208 FPS
Count of elements : 969
Stream size : 27.0 KiB (0%)
Language : Japanese
Default : No
Forced : No

Text #6
ID : 8
Format : UTF-8
Codec ID : S_TEXT/UTF8
Codec ID/Info : UTF-8 Plain Text
Duration : 1 h 17 min
Bit rate : 45 b/s
Frame rate : 0.225 FPS
Count of elements : 1052
Stream size : 26.2 KiB (0%)
Title : Hong Kong
Language : Chinese
Default : No
Forced : No

Text #7
ID : 9
Format : UTF-8
Codec ID : S_TEXT/UTF8
Codec ID/Info : UTF-8 Plain Text
Duration : 1 h 17 min
Bit rate : 47 b/s
Frame rate : 0.221 FPS
Count of elements : 1034
Stream size : 27.2 KiB (0%)
Title : Simplified
Language : Chinese
Default : No
Forced : No

Text #8
ID : 10
Format : UTF-8
Codec ID : S_TEXT/UTF8
Codec ID/Info : UTF-8 Plain Text
Duration : 1 h 17 min
Bit rate : 48 b/s
Frame rate : 0.220 FPS
Count of elements : 1030
Stream size : 27.6 KiB (0%)
Title : Traditional
Language : Chinese
Default : No
Forced : No

Menu
00:00:01.001 : en:Intro
00:00:30.989 : en:Scene 1
01:17:49.378 : en:Credits

Files