Sword Snow Stride 2021 S01 NF WEB-DL 1080P H264 DDP2 0-YH

Xu Xiao has risen to become the King of Northern Liang at a time of great upheaval in China. Steppe kingdoms have risen with deadly intent, and rebellious uprisings threaten to destabilize the realm in the south. Against all odds, Xu Xiao has managed to defeat them all. Meanwhile, his unconventional, free-spirited son and heir Xu Feng Nian has spent years on the road, honing his horse skills and fighting prowess. Along the way, he meets the double sword-wielding martial arts expert Nan Gong Pu She, a woman who becomes his confidante.

https://www.imdb.com/title/tt12740306/
https://www.tvmaze.com/shows/59542/sword-snow-stride

General
Complete name : Sword.Snow.Stride.2021.S01E01.NF.WEB-DL.1080P.H264.DDP2.0-YH.mp4
Format : MPEG-4
Format profile : Base Media
Codec ID : isom (isom/dby1/iso2/avc1/mp41)
File size : 1.77 GiB
Duration : 45 min 27 s
Overall bit rate mode : Variable
Overall bit rate : 5 572 kb/s
Frame rate : 25.000 FPS
Writing application : YH Private Tool ver 2.4
Comment : YH's original works

Video
ID : 1
Format : AVC
Format/Info : Advanced Video Codec: Format profile : High@L4
Format settings : CABAC / 4 Ref Frames
Format settings, CABAC : Yes
Format settings, Reference frames : 4 frames
Codec ID : avc1
Codec ID/Info : Advanced Video Coding
Duration : 45 min 27 s
Bit rate mode : Variable
Bit rate : 5 312 kb/s
Maximum bit rate : 20.0 Mb/s
Width : 1 920 pixels
Height : 1 080 pixels
Display aspect ratio : 16:9
Frame rate mode : Constant
Frame rate : 25.000 FPS
Color space : YUV
Chroma subsampling : 4:2:0
Bit depth : 8 bits
Scan type : Progressive
Bits/(Pixel*Frame) : 0.102
Stream size : 1.69 GiB (95%)
Writing library : x264 core 148 r2727 7d026e8
Language : Chinese
Color range : Limited
Color primaries : BT.709
Transfer characteristics : BT.709
Matrix coefficients : BT.709
Codec configuration box : avcC

Audio #1
ID : 2
Format : E-AC-3
Format/Info : Enhanced AC-3
Commercial name : Dolby Digital Plus
Codec ID : ec-3
Duration : 45 min 27 s
Bit rate mode : Constant
Bit rate : 128 kb/s
Channel(s) : 2 channels
Channel layout : L R
Sampling rate : 48.0 kHz
Frame rate : 31.250 FPS (1536 SPF)
Compression mode : Lossy
Stream size : 41.6 MiB (2%)
Language : Chinese
Service kind : Complete Main
Default : Yes
Alternate group : 1

Audio #2
ID : 3
Format : E-AC-3
Format/Info : Enhanced AC-3
Commercial name : Dolby Digital Plus
Codec ID : ec-3
Duration : 45 min 27 s
Bit rate mode : Constant
Bit rate : 128 kb/s
Channel(s) : 2 channels
Channel layout : L R
Sampling rate : 48.0 kHz
Frame rate : 31.250 FPS (1536 SPF)
Compression mode : Lossy
Stream size : 41.6 MiB (2%)
Language : Chinese
Service kind : Complete Main
Default : Yes
Alternate group : 2

Text #1
ID : 4
Format : Timed Text
Muxing mode : sbtl
Codec ID : tx3g
Duration : 45 min 1 s
Bit rate mode : Variable
Bit rate : 66 b/s
Frame rate : 0.488 FPS
Stream size : 21.6 KiB (0%)
Title : Vietnamese
Language : Vietnamese
Default : Yes
Forced : No
Alternate group : 3
Count of events : 678

Text #2
ID : 5
Format : Timed Text
Muxing mode : sbtl
Codec ID : tx3g
Duration : 45 min 27 s
Bit rate mode : Variable
Bit rate : 45 b/s
Frame rate : 0.353 FPS
Stream size : 14.9 KiB (0%)
Title : 한국인
Language : Korean
Default : No
Forced : No
Alternate group : 4
Count of events : 481

Text #3
ID : 6
Format : Timed Text
Muxing mode : sbtl
Codec ID : tx3g
Duration : 45 min 1 s
Bit rate mode : Variable
Bit rate : 52 b/s
Frame rate : 0.511 FPS
Stream size : 17.1 KiB (0%)
Title : English
Language : English
Default : No
Forced : No
Alternate group : 5
Count of events : 690

Files