Candice Renoir S10 FRENCH 1080p HDTV AVC H264 AAC-Manneken-Pis

Candice Renoir has four children, and has not worked for ten years to follow her husband abroad. Now separated from her husband, she took a position as group leader at the Public Security Investigation in the south of France. At the head of this new team, she has to prove she's good. His experience, observation skills, analytical ability and finesse mind can solve its investigations.

Genre: Drama, Crime

General
Complete name : Candice Renoir S10 - 01 - Un seul être vous manque et tout est dépeuplé _H264.1080p.AAC_Manneken-Pis.mkv
Format : MPEG-4
Format profile : Base Media
Codec ID : isom (isom/avc1)
File size : 1.58 GiB
Duration : 57 min 1 s
Overall bit rate mode : Variable
Overall bit rate : 3 963 kb/s
Encoded date : UTC 2022-04-12 12:26:49
Tagged date : UTC 2022-04-12 12:26:49
FileExtension_Invalid : braw mov mp4 m4v m4a m4b m4p m4r 3ga 3gpa 3gpp 3gp 3gpp2 3g2 k3g jpm jpx mqv ismv isma ismt f4a f4b f4v

Video
ID : 1
Format : AVC
Format/Info : Advanced Video Codec: Format profile : High@L4.2
Format settings : CABAC / 1 Ref Frames
Format settings, CABAC : Yes
Format settings, Reference frames : 1 frame
Format settings, GOP : M=1, N=50
Codec ID : avc1
Codec ID/Info : Advanced Video Coding
Duration : 57 min 1 s
Bit rate mode : Variable
Bit rate : 3 831 kb/s
Maximum bit rate : 12.0 Mb/s
Width : 1 920 pixels
Height : 1 080 pixels
Display aspect ratio : 16:9
Frame rate mode : Constant
Frame rate : 50.000 FPS
Color space : YUV
Chroma subsampling : 4:2:0
Bit depth : 8 bits
Scan type : Progressive
Bits/(Pixel*Frame) : 0.037
Stream size : 1.53 GiB (97%)
Encoded date : UTC 2022-04-12 12:26:49
Tagged date : UTC 2022-04-12 12:27:10
Codec configuration box : avcC

Audio
ID : 2
Format : AAC LC
Format/Info : Advanced Audio Codec Low Complexity
Codec ID : mp4a-40-2
Duration : 57 min 1 s
Bit rate mode : Variable
Bit rate : 128 kb/s
Maximum bit rate : 133 kb/s
Channel(s) : 2 channels
Channel layout : L R
Sampling rate : 48.0 kHz
Frame rate : 46.875 FPS (1024 SPF)
Compression mode : Lossy
Stream size : 52.2 MiB (3%)
Encoded date : UTC 2022-04-12 12:27:07
Tagged date : UTC 2022-04-12 12:27:10

Files