Candice Renoir S11 FRENCH 1080p WEB H264-FW

Candice Renoir has four children, and has not worked for ten years to follow her husband abroad. Now separated from her husband, she took a position as group leader at the Public Security Investigation in the south of France. At the head of this new team, she has to prove she's good. His experience, observation skills, analytical ability and finesse mind can solve its investigations.

Genre: Drama, Crime

General
Unique ID : 47692358812605813125433023384926654663 (0x23E136D58546106A1C5A8AE908F190C7)
Complete name : Candice.Renoir.S11E01.FRENCH.1080p.WEB.H264-FW.mkv
Format : Matroska
Format version : Version 4
File size : 3.42 GiB
Duration : 1 h 31 min
Overall bit rate : 5 347 kb/s
Encoded date : UTC 2022-12-06 19:24:00
Writing application : mkvmerge v64.0.0 ('Willows') 64-bit
Writing library : libebml v1.4.2 + libmatroska v1.6.4

Video
ID : 1
Format : AVC
Format/Info : Advanced Video Codec: Format profile : Main@L4.2
Format settings : CABAC / 4 Ref Frames
Format settings, CABAC : Yes
Format settings, Reference frames : 4 frames
Codec ID : V_MPEG4/ISO/AVC
Duration : 1 h 31 min
Bit rate : 5 218 kb/s
Width : 1 920 pixels
Height : 1 080 pixels
Display aspect ratio : 16:9
Frame rate mode : Constant
Frame rate : 50.000 FPS
Color space : YUV
Chroma subsampling : 4:2:0
Bit depth : 8 bits
Scan type : Progressive
Bits/(Pixel*Frame) : 0.050
Stream size : 3.34 GiB (98%)
Default : Yes
Forced : No

Audio
ID : 2
Format : AAC LC
Format/Info : Advanced Audio Codec Low Complexity
Codec ID : A_AAC-2
Duration : 1 h 31 min
Bit rate : 125 kb/s
Channel(s) : 2 channels
Channel layout : L R
Sampling rate : 48.0 kHz
Frame rate : 46.875 FPS (1024 SPF)
Compression mode : Lossy
Stream size : 82.1 MiB (2%)
Language : French
Default : Yes
Forced : No

Text
ID : 3
Format : UTF-8
Codec ID : S_TEXT/UTF8
Codec ID/Info : UTF-8 Plain Text
Bit rate : 0 b/s
Count of elements : 0
Stream size : 0.00 Byte (0%)
Language : French
Default : No
Forced : No

General
Unique ID : 328854463150797009683440449495048638685 (0xF76710D7CB31567FA31E45C3C64BD0DD)
Complete name : Candice.Renoir.S11E02.FRENCH.1080p.WEB.H264-FW.mkv
Format : Matroska
Format version : Version 4
File size : 3.38 GiB
Duration : 1 h 30 min
Overall bit rate : 5 334 kb/s
Movie name : Candice Renoir : Des bonbons ou la vie
Encoded date : UTC 2023-10-23 16:21:11
Writing application : mkvmerge v79.0 ('Funeral Pyres') 64-bit
Writing library : libebml v1.4.4 + libmatroska v1.7.1

Video
ID : 1
Format : AVC
Format/Info : Advanced Video Codec: Format profile : Main@L4.2
Format settings : CABAC / 4 Ref Frames
Format settings, CABAC : Yes
Format settings, Reference frames : 4 frames
Codec ID : V_MPEG4/ISO/AVC
Duration : 1 h 30 min
Bit rate : 5 205 kb/s
Width : 1 920 pixels
Height : 1 080 pixels
Display aspect ratio : 16:9
Frame rate mode : Constant
Frame rate : 50.000 FPS
Color space : YUV
Chroma subsampling : 4:2:0
Bit depth : 8 bits
Scan type : Progressive
Bits/(Pixel*Frame) : 0.050
Stream size : 3.30 GiB (98%)
Default : Yes
Forced : No

Audio
ID : 2
Format : AAC LC
Format/Info : Advanced Audio Codec Low Complexity
Codec ID : A_AAC-2
Duration : 1 h 30 min
Bit rate : 125 kb/s
Channel(s) : 2 channels
Channel layout : L R
Sampling rate : 48.0 kHz
Frame rate : 46.875 FPS (1024 SPF)
Compression mode : Lossy
Stream size : 81.4 MiB (2%)
Title : VFF
Language : French
Default : Yes
Forced : No

Text
ID : 3
Format : UTF-8
Codec ID : S_TEXT/UTF8
Codec ID/Info : UTF-8 Plain Text
Duration : 1 h 30 min
Bit rate : 88 b/s
Count of elements : 2092
Stream size : 58.9 KiB (0%)
Title : SDH
Language : French
Default : No
Forced : No

Files