Betty Blue 1986 Directors Cut 1080p Criterion BluRay DDP 1 0 x265-SM737

Zorg is a handyman working at in France, maintaining and looking after the bungalows. He lives a quiet and peaceful life...

Year: 1986
Duration: 120 min
Release date: Friday 7th November 1986
Genre: Drama, Romance

Rating

7.3/10
(10416 Votes)

0

Your Rating

Stars:
Jean-Hugues Anglade, Béatrice Dalle, Gérard Darmon, Consuelo De Haviland

https://www.imdb.com/title/tt0090563/

General
Unique ID : 185120315144773808678348014947789260294 (0x8B44E0361417866E4567085AAC594606)
Complete name : Betty.Blue.1986.Directors.Cut.1080p.Criterion.BluRay.DDP.1.0.x265-SM737.mkv
Format : Matroska
Format version : Version 4
File size : 4.79 GiB
Duration : 3 h 5 min
Overall bit rate : 3 700 kb/s
Encoded date : UTC 2024-06-13 16:32:02
Writing application : mkvmerge v85.0 ('Shame For You') 64-bit
Writing library : libebml v1.4.5 + libmatroska v1.7.1 / Lavf60.16.100

Video
ID : 1
Format : HEVC
Format/Info : High Efficiency Video Coding
Format profile : Main 10@L4.1@Main
Codec ID : V_MPEGH/ISO/HEVC
Duration : 3 h 5 min
Bit rate : 3 500 kb/s
Width : 1 800 pixels
Height : 1 080 pixels
Display aspect ratio : 5:3
Frame rate mode : Constant
Frame rate : 23.976 (24000/1001) FPS
Color space : YUV
Chroma subsampling : 4:2:0 (Type 0)
Bit depth : 10 bits
Bits/(Pixel*Frame) : 0.075
Stream size : 4.53 GiB (95%)
Writing library : x265 3.5+1-f0c1022b6:[Linux][GCC 13.2.0][64 bit] 10bit
Encoding settings : cpuid=1111039 / frame-threads=3 / wpp / no-pmode / no-pme / no-psnr / no-ssim / log-level=2 / input-csp=1 / input-res=1800x1080 / interlace=0 / total-frames=0 / level-idc=41 / high-tier=1 / uhd-bd=0 / ref=5 / no-allow-non-conformance / no-repeat-headers / annexb / no-aud / no-eob / no-eos / no-hrd / info / hash=0 / temporal-layers=0 / open-gop / min-keyint=24 / keyint=240 / gop-lookahead=0 / bframes=8 / b-adapt=2 / b-pyramid / bframe-bias=0 / rc-lookahead=40 / lookahead-slices=4 / scenecut=40 / no-hist-scenecut / radl=0 / no-splice / no-intra-refresh / ctu=64 / min-cu-size=8 / rect / no-amp / max-tu-size=32 / tu-inter-depth=1 / tu-intra-depth=1 / limit-tu=0 / rdoq-level=2 / dynamic-rd=0.00 / no-ssim-rd / signhide / no-tskip / nr-intra=0 / nr-inter=0 / no-constrained-intra / strong-intra-smoothing / max-merge=3 / limit-refs=3 / limit-modes / me=3 / subme=3 / merange=57 / temporal-mvp / no-frame-dup / no-hme / no-weightp / no-weightb / no-analyze-src-pics / deblock=-3:-3 / no-sao / no-sao-non-deblock / rd=4 / selective-sao=0 / no-early-skip / rskip / no-fast-intra / no-tskip-fast / no-cu-lossless / no-b-intra / no-splitrd-skip / rdpenalty=0 / psy-rd=2.00 / psy-rdoq=1.00 / no-rd-refine / no-lossless / cbqpoffs=0 / crqpoffs=0 / rc=abr / bitrate=3500 / qcomp=0.60 / qpstep=4 / stats-write=0 / stats-read=2 / cplxblur=20.0 / qblur=0.5 / ipratio=1.40 / pbratio=1.30 / aq-mode=4 / aq-strength=1.00 / cutree / zone-count=0 / no-strict-cbr / qg-size=32 / no-rc-grain / qpmax=69 / qpmin=0 / no-const-vbv / sar=1 / overscan=0 / videoformat=5 / range=0 / colorprim=1 / transfer=1 / colormatrix=1 / chromaloc=1 / chromaloc-top=0 / chromaloc-bottom=0 / display-window=0 / cll=0,0 / min-luma=0 / max-luma=1023 / log2-max-poc-lsb=8 / vui-timing-info / vui-hrd-info / slices=1 / no-opt-qp-pps / no-opt-ref-list-length-pps / no-multi-pass-opt-rps / scenecut-bias=0.05 / no-opt-cu-delta-qp / no-aq-motion / no-hdr10 / no-hdr10-opt / no-dhdr10-opt / no-idr-recovery-sei / analysis-reuse-level=0 / analysis-save-reuse-level=0 / analysis-load-reuse-level=0 / scale-factor=0 / refine-intra=0 / refine-inter=0 / refine-mv=1 / refine-ctu-distortion=0 / no-limit-sao / ctu-info=0 / no-lowpass-dct / refine-analysis-type=0 / copy-pic=1 / max-ausize-factor=1.0 / no-dynamic-refine / no-single-sei / no-hevc-aq / no-svt / no-field / qp-adaptation-range=1.00 / scenecut-aware-qp=0conformance-window-offsets / right=0 / bottom=0 / decoder-max-rate=0 / no-vbv-live-multi-pass / no-mcstf / no-sbrc
Default : Yes
Forced : No
Color range : Limited
Color primaries : BT.709
Transfer characteristics : BT.709
Matrix coefficients : BT.709

Audio
ID : 2
Format : E-AC-3
Format/Info : Enhanced AC-3
Commercial name : Dolby Digital Plus
Codec ID : A_EAC3
Duration : 3 h 5 min
Bit rate mode : Constant
Bit rate : 192 kb/s
Channel(s) : 1 channel
Channel layout : C
Sampling rate : 48.0 kHz
Frame rate : 31.250 FPS (1536 SPF)
Compression mode : Lossy
Stream size : 254 MiB (5%)
Title : Original French mono
Language : French
Service kind : Complete Main
Default : Yes
Forced : No

Text
ID : 3
Format : PGS
Muxing mode : zlib
Codec ID : S_HDMV/PGS
Codec ID/Info : Picture based subtitle format used on BDs/HD-DVDs
Duration : 3 h 0 min
Bit rate : 32.0 kb/s
Count of elements : 3592
Stream size : 41.3 MiB (1%)
Title : Regular
Language : English
Default : Yes
Forced : No

Menu
00:00:00.000 : :1 Making Love
00:05:10.477 : :2 Early Visit
00:12:17.737 : :3 The Owner Visits
00:16:57.266 : :4 Painting
00:23:51.221 : :5 Cleaning Up
00:30:24.114 : :6 Betty Returns
00:36:12.837 : :7 City Life
00:42:25.084 : :8 Can't Sleep
00:47:30.056 : :9 Eddy Sayolle
00:55:01.465 : :10 New Jobs
01:00:08.563 : :11 Rejection
01:06:07.380 : :12 Olives & Tequila
01:13:02.753 : :13 Drop the Charges
01:17:29.311 : :14 It's Not Funny
01:24:44.538 : :15 Eddy's Sorrow
01:29:46.131 : :16 Old Mattress
01:36:08.221 : :17 Demolition Man
01:42:25.181 : :18 Les Gendarmes
01:49:06.915 : :19 Saving Archie
01:56:14.092 : :20 Perfect Place
02:01:17.771 : :21 Sleeping Pill
02:04:55.238 : :22 Piano Moving
02:10:16.058 : :23 Celebrating
02:18:54.284 : :24 Bad News
02:26:00.835 : :25 Hold Up
02:31:10.478 : :26 Finding Betty
02:34:21.127 : :27 Lost Boy
02:41:18.002 : :28 Hospital
02:47:08.185 : :29 Early Call
02:52:57.576 : :30 Disguised Again
03:01:10.193 : :31 End Titles

Betty.Blue.1986.Director's.Cut.BluRay.REMUX.1080p.AVC.FLAC.1.0-BeerGAS

Files