Tea in the Harem AKA Le The au harem d'Archimede 1985 SD DVDRip XviD DD 2 0

In a depressing concrete Parisian suburb in the seventies two friends are keeping boredom at bay with loitering and petty crime.

Year: 1985
Duration: 110 min
Release date: Tuesday 30th April 1985
Genre: Drama

Rating

6.9/10
(465 Votes)

0

Your Rating

Stars:
Kader Boukhanef, Rémi Martin, Laure Duthilleul, Saïda Bekkouche, Nicole Hiss, Brahim Ghenaim, Nathalie Jadot, Frédéric Ayivi

Filling a . Includes external SRT English subtitles.

https://www.imdb.com/title/tt0090171/

In a depressing concrete Parisian suburb in the seventies two friends are keeping boredom at bay with loitering and petty crime.

Complete Mediainfo:

General
Complete name : Le.The.au.harem.d'Archimede_1985.DVDRip.avi
Format : AVI
Format/Info : Audio Video Interleave
File size : 1.46 GiB
Duration : 1 h 45 min
Overall bit rate : 1 980 kb/s
Movie name : Le.The.au.harem.d'Archimede_1985.DVDRip
Writing application : VirtualDubModRus 1.5.10.2 (build 2542/release)
Comment : rip by andresweet

Video
ID : 0
Format : MPEG-4 Visual
Format profile : Advanced Simple@L5
Format settings : BVOP1
Format settings, BVOP : 1
Format settings, QPel : No
Format settings, GMC : No warppoints
Format settings, Matrix : Default (MPEG)
Codec ID : DX50
Codec ID/Hint : DivX 5
Duration : 1 h 45 min
Bit rate : 1 778 kb/s
Width : 704 pixels
Height : 432 pixels
Display aspect ratio : 16:10
Frame rate : 25.000 FPS
Color space : YUV
Chroma subsampling : 4:2:0
Bit depth : 8 bits
Scan type : Progressive
Compression mode : Lossy
Bits/(Pixel*Frame) : 0.234
Stream size : 1.31 GiB (90%)
Writing library : XviD 1.2.1 (UTC 2008-12-04)

Audio
ID : 1
Format : AC-3
Format/Info : Audio Coding 3
Commercial name : Dolby Digital
Codec ID : 2000
Duration : 1 h 45 min
Bit rate mode : Constant
Bit rate : 192 kb/s
Channel(s) : 2 channels
Channel layout : L R
Sampling rate : 48.0 kHz
Frame rate : 31.250 FPS (1536 SPF)
Compression mode : Lossy
Stream size : 145 MiB (10%)
Alignment : Split across interleaves
Interleave, duration : 40 ms (1.00 video frame)
Interleave, preload duration : 500 ms
Service kind : Complete Main

Files