Crossing the Bridge The Sound of Istanbul 2005 1080p AMZN WEB-DL DDP5 1 H 264-WELP

Award-winning director Fatih Akin takes us on a journey through Istanbul, the city that bridges Europe and Asia, and challenges familiar notions of east and west. He looks at the vibrant musical scene which includes traditional Turkish...

Year: 2005
Duration: 90 min
Release date: Wednesday 13th July 2005
Genre: Documentary, History, Music

Rating

7.8/10
(6532 Votes)

0

Your Rating

Stars:
Alexander Hacke, Ahmed Ulug, Cem Yegul, Mehmed Ulug, Baba Zula, Orient Expressions, Duman, Replikas

General
Unique ID : 304828846687894900266971906601352386885 (0xE553E67EF895DD6AE05306F87EDF5945)
Complete name : Crossing.the.Bridge.The.Sound.of.Istanbul.2005.1080p.AMZN.WEB-DL.DDP5.1.H.264-WELP.mkv
Format : Matroska
Format version : Version 4
File size : 6.30 GiB
Duration : 1 h 30 min
Overall bit rate : 9 941 kb/s
Frame rate : 24.000 FPS
Writing application : mkvmerge v79.0 ('Funeral Pyres') 64-bit
Writing library : libebml v1.4.4 + libmatroska v1.7.1

Video
ID : 1
Format : AVC
Format/Info : Advanced Video Codec: Format profile : High@L4
Format settings : CABAC / 4 Ref Frames
Format settings, CABAC : Yes
Format settings, Reference frames : 4 frames
Codec ID : V_MPEG4/ISO/AVC
Duration : 1 h 30 min
Bit rate mode : Constant
Bit rate : 9 423 kb/s
Nominal bit rate : 10 000 kb/s
Width : 1 920 pixels
Height : 1 080 pixels
Display aspect ratio : 16:9
Frame rate mode : Constant
Frame rate : 24.000 FPS
Color space : YUV
Chroma subsampling : 4:2:0
Bit depth : 8 bits
Scan type : Progressive
Bits/(Pixel*Frame) : 0.189
Stream size : 5.97 GiB (95%)
Default : Yes
Forced : No
Color range : Limited
Color primaries : BT.709
Transfer characteristics : BT.709
Matrix coefficients : BT.709

Audio
ID : 2
Format : E-AC-3
Format/Info : Enhanced AC-3
Commercial name : Dolby Digital Plus
Codec ID : A_EAC3
Duration : 1 h 30 min
Bit rate mode : Constant
Bit rate : 320 kb/s
Channel(s) : 6 channels
Channel layout : L R C LFE Ls Rs
Sampling rate : 48.0 kHz
Frame rate : 31.250 FPS (1536 SPF)
Compression mode : Lossy
Stream size : 208 MiB (3%)
Language : Turkish
Service kind : Complete Main
Default : Yes
Forced : No

Text #1
ID : 3
Format : UTF-8
Codec ID : S_TEXT/UTF8
Codec ID/Info : UTF-8 Plain Text
Language : English
Default : Yes
Forced : No

Text #2
ID : 4
Format : UTF-8
Codec ID : S_TEXT/UTF8
Codec ID/Info : UTF-8 Plain Text
Title : SDH
Language : English
Default : No
Forced : No

Text #3
ID : 5
Format : UTF-8
Codec ID : S_TEXT/UTF8
Codec ID/Info : UTF-8 Plain Text
Language : German
Default : No
Forced : No

Text #4
ID : 6
Format : UTF-8
Codec ID : S_TEXT/UTF8
Codec ID/Info : UTF-8 Plain Text
Title : Latin American
Language : Spanish (Latin America)
Default : No
Forced : No

Text #5
ID : 7
Format : UTF-8
Codec ID : S_TEXT/UTF8
Codec ID/Info : UTF-8 Plain Text
Language : French
Default : No
Forced : No

Text #6
ID : 8
Format : UTF-8
Codec ID : S_TEXT/UTF8
Codec ID/Info : UTF-8 Plain Text
Language : Italian
Default : No
Forced : No

Text #7
ID : 9
Format : UTF-8
Codec ID : S_TEXT/UTF8
Codec ID/Info : UTF-8 Plain Text
Language : Dutch
Default : No
Forced : No

Text #8
ID : 10
Format : UTF-8
Codec ID : S_TEXT/UTF8
Codec ID/Info : UTF-8 Plain Text
Title : Brazilian
Language : Portuguese (BR)
Default : No
Forced : No

Text #9
ID : 11
Format : UTF-8
Codec ID : S_TEXT/UTF8
Codec ID/Info : UTF-8 Plain Text
Language : Turkish
Default : No
Forced : No

Menu
00:00:00.000 : en:Chapter 1
00:03:28.223 : en:Baba Zula
00:07:36.303 : en:Open to everything
00:12:00.783 : en:Rock City (inc. Duman)
00:17:12.903 : en:Erik Koray
00:19:42.823 : en:Hip Hop scene
00:34:05.783 : en:Romany Music (inc. Brènna Macrimmon & Selim Sesler)
00:46:10.143 : en:Street music (inc. Siyasiyabend)
00:57:08.703 : en:Kurdish culture
01:03:34.543 : en:Orhan Genebay
01:11:20.383 : en:Sezen Aksu
01:25:13.823 : en:Credits

ReportBy : MediaInfoLib - v23.10

Files