Cold Eyes Of Fear AKA Gli occhi freddi della paura 1971 2160p UHD BluRay REMUX DV HDR HEVC FLAC 2 0-CiNEPHiLES

Respectable lawyer Peter picks up Anna, an Italian woman of dubious virtue, from the club and takes her back to his Uncle's place. They soon discover they are not alone. A gunman Quill (Julian Mateos), is waiting for them.

Year: 1971
Duration: 91 min
Release date: Tuesday 6th April 1971
Genre: Thriller

Rating

5.3/10
(422 Votes)

0

Your Rating

Stars:
Giovanna Ralli, Frank Wolff, Fernando Rey, Julián Mateos

General
Unique ID : 276096878854046718507153278712127472710 (0xCFB6531C81057030B595FD3879C8C446)
Complete name : Cold.Eyes.of.Fear.1971.2160p.UHD.Blu-ray.REMUX.DV.HDR.HEVC.FLAC.2.0-CiNEPHiLES.mkv
Format : Matroska
Format version : Version 4
File size : 51.0 GiB
Duration : 1 h 31 min
Overall bit rate mode : Variable
Overall bit rate : 79.8 Mb/s
Frame rate : 23.976 FPS
Movie name : Cold Eyes of Fear (1971)
Released date : 1971-04-06
Encoded date : 2023-06-29 15:42:05 UTC
Writing application : mkvmerge v77.0 ('Elemental') 64-bit
Writing library : libebml v1.4.4 + libmatroska v1.7.1
ACTOR : Franco Marletta
DIRECTOR : Enzo G. Castellari
GENRE : Thriller
IMDB : tt0067511
SUBTITLE : Your last scream will be the loudest.
SUMMARY : Against a backdrop of Swingin' 60s London a young playboy type "e;steals"e; a beautiful Italian girl from her elderly date and suggests she comes back to his place for some good times. "e;His place"e; being owned by his father, a rich and respected solicitor. Unfortunately a couple of criminals have plans of their own, one for money, the other for revenge, and the lovers end up prisoners in a tense siege situation
TMDB : 105085

Video
ID : 1
ID in the original source medium : 4113 (0x1011)
Format : HEVC
Format/Info : High Efficiency Video Coding
Format profile : Main 10@L5.1@High
HDR format : Dolby Vision, Version 1.0, dvhe.07.06, BL+EL+RPU, Blu-ray compatible / SMPTE ST 2086, HDR10 compatible
Codec ID : V_MPEGH/ISO/HEVC
Duration : 1 h 31 min
Bit rate : 78.8 Mb/s
Width : 3 840 pixels
Height : 2 160 pixels
Display aspect ratio : 16:9
Frame rate mode : Constant
Frame rate : 23.976 (24000/1001) FPS
Color space : YUV
Chroma subsampling : 4:2:0 (Type 2)
Bit depth : 10 bits
Bits/(Pixel*Frame) : 0.396
Stream size : 50.3 GiB (99%)
Language : Italian
Default : Yes
Forced : No
Color range : Limited
Color primaries : BT.2020
Transfer characteristics : PQ
Matrix coefficients : BT.2020 non-constant
Mastering display color primaries : BT.2020
Mastering display luminance : min: 0.0001 cd/m2, max: 1000 cd/m2
Maximum Content Light Level : 895 cd/m2
Maximum Frame-Average Light Level : 479 cd/m2
Original source medium : Blu-ray

Audio #1
ID : 2
Format : FLAC
Format/Info : Free Lossless Audio Codec: Codec ID : A_FLAC
Duration : 1 h 31 min
Bit rate mode : Variable
Bit rate : 442 kb/s
Channel(s) : 2 channels
Channel layout : L R
Sampling rate : 48.0 kHz
Frame rate : 11.719 FPS (4096 SPF)
Bit depth : 16 bits
Compression mode : Lossless
Stream size : 289 MiB (0%)
Title : Dual Mono Mix
Writing library : libFLAC 1.4.3 (2023-06-23)
Language : Italian
Default : Yes
Forced : No
MD5 of the unencoded content : FE96EEDB091CE28F7DA0A02593A56E0D

Audio #2
ID : 3
Format : FLAC
Format/Info : Free Lossless Audio Codec: Codec ID : A_FLAC
Duration : 1 h 31 min
Bit rate mode : Variable
Bit rate : 425 kb/s
Channel(s) : 2 channels
Channel layout : L R
Sampling rate : 48.0 kHz
Frame rate : 11.719 FPS (4096 SPF)
Bit depth : 16 bits
Compression mode : Lossless
Stream size : 278 MiB (0%)
Title : English Dub
Writing library : libFLAC 1.4.3 (2023-06-23)
Language : English
Default : No
Forced : No
MD5 of the unencoded content : 98866A11F585E70A00DB81B456251CF7

Audio #3
ID : 4
Format : AC-3
Format/Info : Audio Coding 3
Commercial name : Dolby Digital
Codec ID : A_AC3
Duration : 1 h 31 min
Bit rate mode : Constant
Bit rate : 192 kb/s
Channel(s) : 2 channels
Channel layout : L R
Sampling rate : 48.0 kHz
Frame rate : 31.250 FPS (1536 SPF)
Compression mode : Lossy
Stream size : 125 MiB (0%)
Title : Commentry by film critics David Flint & Adrian J Smith
Language : English
Service kind : Complete Main
Default : No
Forced : No

Text #1
ID : 5
Format : PGS
Codec ID : S_HDMV/PGS
Codec ID/Info : Picture based subtitle format used on BDs/HD-DVDs
Duration : 1 h 24 min
Bit rate : 31.6 kb/s
Frame rate : 0.382 FPS
Count of elements : 1946
Stream size : 19.2 MiB (0%)
Title : English Regular
Language : English
Default : Yes
Forced : No

Text #2
ID : 6
Format : PGS
Codec ID : S_HDMV/PGS
Codec ID/Info : Picture based subtitle format used on BDs/HD-DVDs
Duration : 1 h 31 min
Bit rate : 36.7 kb/s
Frame rate : 0.449 FPS
Count of elements : 2454
Stream size : 23.9 MiB (0%)
Title : English SDH
Language : English
Default : No
Forced : No

Menu
00:00:00.000 : en:Knifepoint
00:08:37.642 : en:Night on the Town
00:17:21.123 : en:Man in Black
00:27:36.071 : en:Police
00:35:27.917 : en:The Letter
00:45:02.199 : en:Blood on Bumper
00:55:29.535 : en:Killing a Man
01:02:58.108 : en:Insidia
01:11:51.098 : en:Guilty
01:20:43.964 : en:Tripwire

The video stream is demuxed using MakeMKV latest.
The ITA audio is pretty decent, so it's set as default. However, the English dub from UHD went through a meat grinder, resulting in no bass and very flat sounds. To be honest, the BD audio isn't that great either, but it's at least better than what we have on UHD, so I used that.
Chapter names are taken from the 1080p BD.

Enjoy
-CiNEPHiLES-

Files