The Suspicious Death of a Minor AKA Morte sospetta di una minorenne 1975 1080p BluRay REMUX AVC Dual-Audio LPCM 1.0-edwood

A young prostitute is found brutally killed and is up to detective Germi (Claudio Cassinelli) the investigation of the case, as the search progress he uncovers a girls trafficking ring with connections to powerful people.

Year: 1975
Duration: 100 min
Release date: Tuesday 12th August 1975
Genre: Comedy, Crime, Horror, Thriller

Rating

6.7/10
(366 Votes)

0

Your Rating

Stars:
Claudio Cassinelli, Mel Ferrer, Lia Tanzi, Gianfranco Barra

General
Unique ID : 1756167147174432629216055193618042132 (0x15239B9AFE14012D0525344282F4D14)
Complete name : The.Suspicious.Death.of.a.Minor.1975.1080p.BluRay.DTS-HD.1.0.AVC.REMUX-edwood.mkv
Format : Matroska
Format version : Version 2
File size : 26.5 GiB
Duration : 1 h 40 min
Overall bit rate mode : Variable
Overall bit rate : 37.8 Mb/s
Movie name : The Suspicious Death of a Minor (1975)
Encoded date : UTC 2024-06-30 13:59:52
Writing application : MakeMKV v1.17.7 linux(x64-release)
Writing library : libmakemkv v1.17.7 (1.3.10/1.5.2) x86_64-linux-gnu

Video
ID : 1
ID in the original source medium : 4113 (0x1011)
Format : AVC
Format/Info : Advanced Video Codec: Format profile : High@L4.1
Format settings : CABAC / 3 Ref Frames
Format settings, CABAC : Yes
Format settings, Reference frames : 3 frames
Codec ID : V_MPEG4/ISO/AVC
Duration : 1 h 40 min
Bit rate mode : Variable
Bit rate : 35.0 Mb/s
Maximum bit rate : 38.0 Mb/s
Width : 1 920 pixels
Height : 1 080 pixels
Display aspect ratio : 16:9
Frame rate mode : Constant
Frame rate : 23.976 (24000/1001) FPS
Color space : YUV
Chroma subsampling : 4:2:0
Bit depth : 8 bits
Scan type : Progressive
Bits/(Pixel*Frame) : 0.704
Stream size : 24.3 GiB (92%)
Writing library : x264 core 148 r2744 b97ae06
Encoding settings : cabac=1 / ref=4 / deblock=1:-1:-1 / analyse=0x3:0x133 / me=umh / subme=10 / psy=1 / psy_rd=1.00:0.15 / mixed_ref=1 / me_range=24 / chroma_me=1 / trellis=2 / 8x8dct=1 / cqm=1 / deadzone=21,11 / fast_pskip=1 / chroma_qp_offset=-6 / threads=12 / lookahead_threads=1 / sliced_threads=0 / slices=4 / nr=0 / decimate=1 / interlaced=0 / bluray_compat=1 / stitchable=1 / constrained_intra=0 / bframes=3 / b_pyramid=1 / b_adapt=2 / b_bias=0 / direct=3 / weightb=1 / open_gop=1 / weightp=1 / keyint=24 / keyint_min=1 / scenecut=40 / intra_refresh=0 / rc_lookahead=24 / rc=2pass / mbtree=1 / bitrate=35000 / ratetol=0.1 / qcomp=0.60 / qpmin=7 / qpmax=69 / qpstep=4 / cplxblur=20.0 / qblur=0.5 / vbv_maxrate=38000 / vbv_bufsize=30000 / nal_hrd=vbr / filler=0 / ip_ratio=1.40 / aq=1:1.00
Language : English
Default : No
Forced : No
Color range : Limited
Color primaries : BT.709
Transfer characteristics : BT.709
Matrix coefficients : BT.709
Original source medium : Blu-ray

Audio #1
ID : 2
ID in the original source medium : 4353 (0x1101)
Format : PCM
Format settings : Little / Signed
Codec ID : A_PCM/INT/LIT
Duration : 1 h 40 min
Bit rate mode : Constant
Bit rate : 1 152 kb/s
Channel(s) : 1 channel
Sampling rate : 48.0 kHz
Frame rate : 30.000 FPS (1600 SPF)
Bit depth : 24 bits
Stream size : 827 MiB (3%)
Title : Mono
Language : English
Default : No
Forced : No
Original source medium : Blu-ray

Audio #2
ID : 3
ID in the original source medium : 4354 (0x1102)
Format : PCM
Format settings : Little / Signed
Codec ID : A_PCM/INT/LIT
Duration : 1 h 40 min
Bit rate mode : Constant
Bit rate : 768 kb/s
Channel(s) : 1 channel
Sampling rate : 48.0 kHz
Frame rate : 30.000 FPS (1600 SPF)
Bit depth : 16 bits
Stream size : 551 MiB (2%)
Title : Commentary
Language : English
Default : No
Forced : No
Original source medium : Blu-ray

Audio #3
ID : 4
ID in the original source medium : 4352 (0x1100)
Format : PCM
Format settings : Little / Signed
Codec ID : A_PCM/INT/LIT
Duration : 1 h 40 min
Bit rate mode : Constant
Bit rate : 1 152 kb/s
Channel(s) : 1 channel
Sampling rate : 48.0 kHz
Frame rate : 30.000 FPS (1600 SPF)
Bit depth : 24 bits
Stream size : 827 MiB (3%)
Title : Mono
Language : Italian
Default : Yes
Forced : No
Original source medium : Blu-ray

Text #1
ID : 5
ID in the original source medium : 4608 (0x1200)
Format : PGS
Codec ID : S_HDMV/PGS
Codec ID/Info : Picture based subtitle format used on BDs/HD-DVDs
Duration : 1 h 36 min
Bit rate : 30.7 kb/s
Count of elements : 2008
Stream size : 21.3 MiB (0%)
Language : English
Default : No
Forced : No
Original source medium : Blu-ray

Text #2
ID : 7
ID in the original source medium : 4609 (0x1201)
Format : PGS
Codec ID : S_HDMV/PGS
Codec ID/Info : Picture based subtitle format used on BDs/HD-DVDs
Duration : 1 h 37 min
Bit rate : 34.6 kb/s
Count of elements : 2274
Stream size : 24.1 MiB (0%)
Language : English
Default : No
Forced : No
Original source medium : Blu-ray

Menu
00:00:00.000 : en:Chapter 01
00:08:33.262 : en:Chapter 02
00:17:33.761 : en:Chapter 03
00:24:40.520 : en:Chapter 04
00:34:29.067 : en:Chapter 05
00:40:08.155 : en:Chapter 06
00:52:24.349 : en:Chapter 07
00:58:49.192 : en:Chapter 08
01:06:46.252 : en:Chapter 09
01:15:07.252 : en:Chapter 10
01:23:48.148 : en:Chapter 11
01:31:44.207 : en:Chapter 12

Report created by : MediaInfoLib - v21.09

Files