Spider-Man Into the Spider-Verse 2018 MULTI 2160p WEB-DL DV X265 AC3

Miles Morales is a New York teen struggling with school, friends and, on top of that, being the new Spider-Man. When he comes across Peter Parker, the erstwhile saviour of New York, in the multiverse, Miles must train to become the new protector of his city. Written by Tom Daly
Episode Summary: Miles Morales becomes the Spider-Man of his reality and crosses paths with his counterparts from other dimensions to stop a threat to all reality.

Episode Title: Spider-Man: Into the Spider-Verse
Episode Air date: Wednesday 12th December 2018
Duration: 117 min
Genre: Animation, Action, Adventure, Family, Sci-Fi

Rating

8.6/10
(123938 Votes)

0

Your Rating

Stars: Shameik Moore,Jake Johnson,Hailee Steinfeld,Mahershala Ali,Brian Tyree Henry,Lily Tomlin,Luna Lauren Velez,Zo Kravitz

General
Complete name : H:\4K WEB DV\- .2018.WEB-DL.2160p.DV.mp4
Format : MPEG-4
Format profile : Base Media / Version 2
Codec ID : mp42 (iso4/mp42/dby1)
File size : 21.2 GiB
Duration : 1 h 56 min
Overall bit rate mode : Variable
Overall bit rate : 26.0 Mb/s
Frame rate : 23.976 FPS
Encoded date : 2023-06-04 09:47:40 UTC
Tagged date : 2023-06-04 09:47:40 UTC
Writing application : GPAC-2.3-DEV-rev283-g5bd03ed4-master
Cover : Yes

Video
ID : 1
Format : HEVC
Format/Info : High Efficiency Video Coding
Format profile : Main 10@L5@High
HDR format : Dolby Vision, Version 1.0, dvhe.05.06, BL+RPU
Codec ID : dvhe
Codec ID/Info : High Efficiency Video Coding with Dolby Vision
Duration : 1 h 56 min
Bit rate : 24.0 Mb/s
Maximum bit rate : 87.1 Mb/s
Width : 3 840 pixels
Height : 1 592 pixels
Display aspect ratio : 2.40:1
Frame rate mode : Constant
Frame rate : 23.976 (24000/1001) FPS
Color space : YUV
Chroma subsampling : 4:2:0
Bit depth : 10 bits
Bits/(Pixel*Frame) : 0.164
Stream size : 19.6 GiB (93%)
Title : rutracker
Default : Yes
Alternate group : 1
Encoded date : 2023-06-04 09:47:40 UTC
Tagged date : 2023-06-04 09:51:59 UTC
mdhd_Duration : 7008252
Codec configuration box : hvcC+dvcC

Audio #1
ID : 2
Format : AC-3
Format/Info : Audio Coding 3
Commercial name : Dolby Digital
Codec ID : ac-3
Duration : 1 h 56 min
Bit rate mode : Constant
Bit rate : 640 kb/s
Maximum bit rate : 676 kb/s
Channel(s) : 6 channels
Channel layout : L R C LFE Ls Rs
Sampling rate : 48.0 kHz
Frame rate : 31.250 FPS (1536 SPF)
Compression mode : Lossy
Stream size : 535 MiB (2%)
Title : Dub, Blu-Ray
Language : Russian
Service kind : Complete Main
Default : Yes
Alternate group : 1
Encoded date : 2023-06-04 09:51:35 UTC
Tagged date : 2023-06-04 09:51:59 UTC

Audio #2
ID : 3
Format : AC-3
Format/Info : Audio Coding 3
Commercial name : Dolby Digital
Codec ID : ac-3
Duration : 1 h 56 min
Bit rate mode : Constant
Bit rate : 640 kb/s
Maximum bit rate : 676 kb/s
Channel(s) : 6 channels
Channel layout : L R C LFE Ls Rs
Sampling rate : 48.0 kHz
Frame rate : 31.250 FPS (1536 SPF)
Compression mode : Lossy
Stream size : 535 MiB (2%)
Title : Dub, Blu-Ray
Language : Ukrainian
Service kind : Complete Main
Default : No
Alternate group : 1
Encoded date : 2023-06-04 09:51:44 UTC
Tagged date : 2023-06-04 09:51:59 UTC

Audio #3
ID : 4
Format : E-AC-3
Format/Info : Enhanced AC-3
Commercial name : Dolby Digital Plus
Codec ID : ec-3
Duration : 1 h 56 min
Bit rate mode : Constant
Bit rate : 640 kb/s
Maximum bit rate : 676 kb/s
Channel(s) : 6 channels
Channel layout : L R C LFE Ls Rs
Sampling rate : 48.0 kHz
Frame rate : 31.250 FPS (1536 SPF)
Compression mode : Lossy
Stream size : 535 MiB (2%)
Title : Original
Language : English
Service kind : Complete Main
Default : No
Alternate group : 1
Encoded date : 2023-06-04 09:51:51 UTC
Tagged date : 2023-06-04 09:51:59 UTC

Text #1
ID : 5
Format : Timed Text
Codec ID : tx3g
Duration : 1 h 56 min
Bit rate mode : Variable
Bit rate : 3 b/s
Frame rate : 0.018 FPS
Stream size : 2.40 KiB (0%)
Title : forced
Language : Russian
Default : Yes
Forced : No
Alternate group : 1
Encoded date : 2023-06-04 09:51:58 UTC
Tagged date : 2023-06-04 09:51:59 UTC
Count of events : 64

Text #2
ID : 6
Format : Timed Text
Codec ID : tx3g
Duration : 1 h 56 min
Bit rate mode : Variable
Bit rate : 92 b/s
Frame rate : 0.417 FPS
Stream size : 79.0 KiB (0%)
Title : full
Language : Russian
Default : No
Forced : No
Encoded date : 2023-06-04 09:51:58 UTC
Tagged date : 2023-06-04 09:51:59 UTC
Count of events : 1461

Text #3
ID : 7
Format : Timed Text
Codec ID : tx3g
Duration : 1 h 56 min
Bit rate mode : Variable
Bit rate : 3 b/s
Frame rate : 0.018 FPS
Stream size : 2.35 KiB (0%)
Title : forced
Language : Ukrainian
Default : No
Forced : No
Encoded date : 2023-06-04 09:51:58 UTC
Tagged date : 2023-06-04 09:51:59 UTC
Count of events : 64

Text #4
ID : 8
Format : Timed Text
Codec ID : tx3g
Duration : 1 h 56 min
Bit rate mode : Variable
Bit rate : 91 b/s
Frame rate : 0.419 FPS
Stream size : 77.6 KiB (0%)
Title : full
Language : Ukrainian
Default : No
Forced : No
Encoded date : 2023-06-04 09:51:58 UTC
Tagged date : 2023-06-04 09:51:59 UTC
Count of events : 1468

Text #5
ID : 9
Format : Timed Text
Codec ID : tx3g
Duration : 1 h 56 min
Bit rate mode : Variable
Bit rate : 67 b/s
Frame rate : 0.440 FPS
Stream size : 57.4 KiB (0%)
Title : full
Language : English
Default : No
Forced : No
Encoded date : 2023-06-04 09:51:58 UTC
Tagged date : 2023-06-04 09:51:59 UTC
Count of events : 1540

Text #6
ID : 10
Format : Timed Text
Codec ID : tx3g
Duration : 1 h 56 min
Bit rate mode : Variable
Bit rate : 104 b/s
Frame rate : 0.649 FPS
Stream size : 89.0 KiB (0%)
Title : SDH
Language : English
Default : No
Forced : No
Encoded date : 2023-06-04 09:51:58 UTC
Tagged date : 2023-06-04 09:51:59 UTC
Count of events : 2271

Files