Goyokin The Steel Edge of Revenge 1969 1080p BluRay REMUX AVC DTS-HD MA 2 0-RMS

A guilt-haunted samurai warrior attempts to stop a massacre taking place.

Year: 1969
Duration: 124 min
Release date: Thursday 1st May 1969
Genre: Action, Adventure, Drama

Rating

7.6/10
(2638 Votes)

0

Your Rating

Stars:
Tatsuya Nakadai, Tetsurô Tanba, Yôko Tsukasa, Ruriko Asaoka, Kunie Tanaka, Isao Natsuyagi, Kô Nishimura, Eijirô Tôno

Filling a . Includes external SRT English subtitles.

https://www.imdb.com/title/tt0064387/

A guilt-haunted samurai warrior attempts to stop a massacre taking place.

Complete Mediainfo:

General
Unique ID : 265806088190549984810150937656008300280 (0xC7F863F57DF73B626BC8FA5F6802D6F8)
Complete name : /sdb/ezko/data/rtorrent/Goyokin.1969.1080p.BluRay.REMUX.AVC.DTS-HD.MA.2.0-RMS/Goyokin.1969.1080p.BluRay.REMUX.AVC.DTS-HD.MA.2.0-RMS.mkv
Format : Matroska
Format version : Version 4
File size : 33.1 GiB
Duration : 2 h 3 min
Overall bit rate mode : Variable
Overall bit rate : 38.4 Mb/s
Encoded date : UTC 2023-01-28 18:30:03
Writing application : mkvmerge v61.0.0 ('So') 64-bit
Writing library : libebml v1.4.2 + libmatroska v1.6.4

Video
ID : 1
Format : AVC
Format/Info : Advanced Video Codec: Format profile : High@L4.1
Format settings : CABAC / 4 Ref Frames
Format settings, CABAC : Yes
Format settings, Reference frames : 4 frames
Codec ID : V_MPEG4/ISO/AVC
Duration : 2 h 3 min
Bit rate mode : Variable
Bit rate : 36.9 Mb/s
Maximum bit rate : 38.0 Mb/s
Width : 1 920 pixels
Height : 1 080 pixels
Display aspect ratio : 16:9
Frame rate mode : Constant
Frame rate : 23.976 (24000/1001) FPS
Color space : YUV
Chroma subsampling : 4:2:0
Bit depth : 8 bits
Scan type : Progressive
Bits/(Pixel*Frame) : 0.742
Stream size : 31.8 GiB (96%)
Title : MPEG-4 AVC Video / 36903 kbps / 1080p / 23.976 fps / 16:9 / High Profile 4.1
Default : Yes
Forced : No

Audio
ID : 2
Format : DTS XLL
Format/Info : Digital Theater Systems
Commercial name : DTS-HD Master Audio
Codec ID : A_DTS
Duration : 2 h 3 min
Bit rate mode : Variable
Bit rate : 1 468 kb/s
Channel(s) : 2 channels
Channel layout : L R
Sampling rate : 48.0 kHz
Frame rate : 93.750 FPS (512 SPF)
Bit depth : 24 bits
Compression mode : Lossless
Stream size : 1.27 GiB (4%)
Title : DTS-HD Master Audio / 2.0/ 48 kHz / 1 468 kbps / 24-bit
Language : Japanese
Default : Yes
Forced : No

Menu
00:00:00.000 : Chapter 01
00:10:32.507 : Chapter 02
00:21:53.312 : Chapter 03
00:36:07.832 : Chapter 04
00:48:03.881 : Chapter 05
01:05:36.307 : Chapter 06
01:14:34.845 : Chapter 07
01:26:09.456 : Chapter 08
01:36:32.161 : Chapter 09
01:49:19.011 : Chapter 10

Files