Malayalee From India (2024) 1080p TRUE WEB-DL - AVC - (DD+5 1 - 256Kbps) [Tel + Tam + Hin + Mal + Kan] - 4 8GB - ESub

An unemployed young man named Aalparambil Gopi is compelled to embark on a journey away from his home. This unplanned trip ultimately changes the course of his life in a remarkable way.

Year: 2024
Duration: 160 min
Release date: Wednesday 1st May 2024
Genre: Action

Rating

5.9/10
(4207 Votes)

0

Your Rating

Stars:
Nivin Pauly, Dhyan Sreenivasan, Anaswara Rajan, Dijo Jose Antony, Shine Tom Chacko, Deepak Jethi, Parminder Singh Kainth, Salim Kumar

General
Unique ID : 211176654782592145992611588612222584551 (0x9EDF24F0DA7BD5288E984EE6785386E7)
Complete name : C:\Users\tmanc\Downloads\Qbittorrent\Malayalee From India (2024) 1080p TRUE WEB-DL - AVC - (DD+5.1 - 256Kbps) [Tel + Tam + Hin + Mal + Kan] - 4.8GB - ESub.mkv
Format : Matroska
Format version : Version 4
File size : 4.80 GiB
Duration : 2 h 35 min
Overall bit rate mode : Variable
Overall bit rate : 4 416 kb/s
Frame rate : 24.000 FPS
Movie name : www.5MovieRulz.loans
Encoded date : 2024-07-04 13:50:59 UTC
Writing application : mkvmerge v9.0.0 ('Power to progress') 64bit
Writing library : libebml v1.3.3 + libmatroska v1.4.4

Video
ID : 1
Format : AVC
Format/Info : Advanced Video Codec: Format profile : Main@L4
Format settings : CABAC / 4 Ref Frames
Format settings, CABAC : Yes
Format settings, Reference frames : 4 frames
Codec ID : V_MPEG4/ISO/AVC
Duration : 2 h 35 min
Bit rate mode : Variable
Bit rate : 2 489 kb/s
Maximum bit rate : 5 000 kb/s
Width : 1 920 pixels
Height : 1 080 pixels
Display aspect ratio : 16:9
Frame rate mode : Constant
Frame rate : 24.000 FPS
Color space : YUV
Chroma subsampling : 4:2:0
Bit depth : 8 bits
Scan type : Progressive
Bits/(Pixel*Frame) : 0.050
Stream size : 2.70 GiB (56%)
Title : www.5MovieRulz.loans
Language : English
Default : Yes
Forced : No
Color range : Limited
Color primaries : BT.709
Matrix coefficients : BT.709

Audio #1
ID : 2
Format : E-AC-3
Format/Info : Enhanced AC-3
Commercial name : Dolby Digital Plus
Codec ID : A_EAC3
Duration : 2 h 35 min
Bit rate mode : Constant
Bit rate : 256 kb/s
Channel(s) : 6 channels
Channel layout : L R C LFE Ls Rs
Sampling rate : 48.0 kHz
Frame rate : 31.250 FPS (1536 SPF)
Compression mode : Lossy
Stream size : 285 MiB (6%)
Title : www.5MovieRulz.loans
Language : Telugu
Service kind : Complete Main
Default : Yes
Forced : No
Dialog Normalization : -27 dB
compr : -0.28 dB
dialnorm_Average : -27 dB
dialnorm_Minimum : -27 dB
dialnorm_Maximum : -27 dB

Audio #2
ID : 3
Format : E-AC-3
Format/Info : Enhanced AC-3
Commercial name : Dolby Digital Plus
Codec ID : A_EAC3
Duration : 2 h 35 min
Bit rate mode : Constant
Bit rate : 256 kb/s
Channel(s) : 6 channels
Channel layout : L R C LFE Ls Rs
Sampling rate : 48.0 kHz
Frame rate : 31.250 FPS (1536 SPF)
Compression mode : Lossy
Stream size : 285 MiB (6%)
Title : www.5MovieRulz.loans
Language : Tamil
Service kind : Complete Main
Default : No
Forced : No
Dialog Normalization : -27 dB
compr : -0.28 dB
dialnorm_Average : -27 dB
dialnorm_Minimum : -27 dB
dialnorm_Maximum : -27 dB

Audio #3
ID : 4
Format : E-AC-3
Format/Info : Enhanced AC-3
Commercial name : Dolby Digital Plus
Codec ID : A_EAC3
Duration : 2 h 35 min
Bit rate mode : Constant
Bit rate : 256 kb/s
Channel(s) : 6 channels
Channel layout : L R C LFE Ls Rs
Sampling rate : 48.0 kHz
Frame rate : 31.250 FPS (1536 SPF)
Compression mode : Lossy
Stream size : 285 MiB (6%)
Title : www.5MovieRulz.loans
Language : Hindi
Service kind : Complete Main
Default : No
Forced : No
Dialog Normalization : -27 dB
compr : -0.28 dB
dialnorm_Average : -27 dB
dialnorm_Minimum : -27 dB
dialnorm_Maximum : -27 dB

Audio #4
ID : 5
Format : E-AC-3
Format/Info : Enhanced AC-3
Commercial name : Dolby Digital Plus
Codec ID : A_EAC3
Duration : 2 h 35 min
Bit rate mode : Constant
Bit rate : 256 kb/s
Channel(s) : 6 channels
Channel layout : L R C LFE Ls Rs
Sampling rate : 48.0 kHz
Frame rate : 31.250 FPS (1536 SPF)
Compression mode : Lossy
Stream size : 285 MiB (6%)
Title : www.5MovieRulz.loans
Language : Malayalam
Service kind : Complete Main
Default : No
Forced : No
Dialog Normalization : -27 dB
compr : -0.28 dB
dialnorm_Average : -27 dB
dialnorm_Minimum : -27 dB
dialnorm_Maximum : -27 dB

Audio #5
ID : 6
Format : E-AC-3
Format/Info : Enhanced AC-3
Commercial name : Dolby Digital Plus
Codec ID : A_EAC3
Duration : 2 h 35 min
Bit rate mode : Constant
Bit rate : 256 kb/s
Channel(s) : 6 channels
Channel layout : L R C LFE Ls Rs
Sampling rate : 48.0 kHz
Frame rate : 31.250 FPS (1536 SPF)
Compression mode : Lossy
Stream size : 285 MiB (6%)
Title : www.5MovieRulz.loans
Language : Kannada
Service kind : Complete Main
Default : No
Forced : No
Dialog Normalization : -27 dB
compr : -0.28 dB
dialnorm_Average : -27 dB
dialnorm_Minimum : -27 dB
dialnorm_Maximum : -27 dB

Audio #6
ID : 7
Format : AAC LC SBR
Format/Info : Advanced Audio Codec Low Complexity with Spectral Band Replication
Commercial name : HE-AAC
Format settings : Explicit
Codec ID : A_AAC-2
Duration : 2 h 35 min
Bit rate : 128 kb/s
Channel(s) : 2 channels
Channel layout : L R
Sampling rate : 96.0 kHz
Frame rate : 46.875 FPS (2048 SPF)
Compression mode : Lossy
Stream size : 142 MiB (3%)
Title : www.5MovieRulz.loans
Language : Telugu
Default : No
Forced : No

Audio #7
ID : 8
Format : AAC LC SBR
Format/Info : Advanced Audio Codec Low Complexity with Spectral Band Replication
Commercial name : HE-AAC
Format settings : Explicit
Codec ID : A_AAC-2
Duration : 2 h 35 min
Bit rate : 128 kb/s
Channel(s) : 2 channels
Channel layout : L R
Sampling rate : 96.0 kHz
Frame rate : 46.875 FPS (2048 SPF)
Compression mode : Lossy
Stream size : 142 MiB (3%)
Title : www.5MovieRulz.loans
Language : Tamil
Default : No
Forced : No

Audio #8
ID : 9
Format : AAC LC SBR
Format/Info : Advanced Audio Codec Low Complexity with Spectral Band Replication
Commercial name : HE-AAC
Format settings : Explicit
Codec ID : A_AAC-2
Duration : 2 h 35 min
Bit rate : 128 kb/s
Channel(s) : 2 channels
Channel layout : L R
Sampling rate : 96.0 kHz
Frame rate : 46.875 FPS (2048 SPF)
Compression mode : Lossy
Stream size : 142 MiB (3%)
Title : www.5MovieRulz.loans
Language : Hindi
Default : No
Forced : No

Audio #9
ID : 10
Format : AAC LC SBR
Format/Info : Advanced Audio Codec Low Complexity with Spectral Band Replication
Commercial name : HE-AAC
Format settings : Explicit
Codec ID : A_AAC-2
Duration : 2 h 35 min
Bit rate : 128 kb/s
Channel(s) : 2 channels
Channel layout : L R
Sampling rate : 96.0 kHz
Frame rate : 46.875 FPS (2048 SPF)
Compression mode : Lossy
Stream size : 142 MiB (3%)
Title : www.5MovieRulz.loans
Language : Malayalam
Default : No
Forced : No

Audio #10
ID : 11
Format : AAC LC SBR
Format/Info : Advanced Audio Codec Low Complexity with Spectral Band Replication
Commercial name : HE-AAC
Format settings : Explicit
Codec ID : A_AAC-2
Duration : 2 h 35 min
Bit rate : 128 kb/s
Channel(s) : 2 channels
Channel layout : L R
Sampling rate : 96.0 kHz
Frame rate : 46.875 FPS (2048 SPF)
Compression mode : Lossy
Stream size : 142 MiB (3%)
Title : www.5MovieRulz.loans
Language : Kannada
Default : No
Forced : No

Text
ID : 12
Format : UTF-8
Codec ID : S_TEXT/UTF8
Codec ID/Info : UTF-8 Plain Text
Duration : 2 h 32 min
Bit rate : 69 b/s
Frame rate : 0.312 FPS
Count of elements : 2856
Stream size : 77.4 KiB (0%)
Title : www.5MovieRulz.loans
Language : English
Default : No
Forced : No

Files