Kalki 2898 AD (2024) v2 1080p Telugu CAM - x264 - AAC - 3 2GB

A modern-day avatar of Vishnu, a Hindu god, who is believed to have descended to earth to protect the world from evil forces.

Year: 2024
Duration: 170 min
Release date: Thursday 27th June 2024
Genre: Action, Adventure, Drama, Fantasy, Sci-Fi, Thriller

0

Your Rating

Stars:
Prabhas, Amitabh Bachchan, Kamal Haasan, Deepika Padukone, Disha Patani, Keerthy Suresh, Anna Ben, Pasupathy

General
Unique ID : 179193400576368923608165834456118626324 (0x86CF64C3034CE89CB2E55405D0D88814)
Complete name : C:\Users\tmanc\Downloads\Qbittorrent\Kalki 2898 AD (2024) v2 1080p Telugu DVDScr - x264 - AAC - 3.2GB.mkv
Format : Matroska
Format version : Version 4
File size : 3.26 GiB
Duration : 2 h 56 min
Overall bit rate : 2 642 kb/s
Frame rate : 30.000 FPS
Movie name : www.5MovieRulz.moda
Encoded date : 2024-06-27 13:23:21 UTC
Writing application : mkvmerge v9.0.0 ('Power to progress') 64bit
Writing library : libebml v1.3.3 + libmatroska v1.4.4

Video
ID : 1
Format : AVC
Format/Info : Advanced Video Codec: Format profile : Main@L4.1
Format settings : CABAC / 4 Ref Frames
Format settings, CABAC : Yes
Format settings, Reference frames : 4 frames
Codec ID : V_MPEG4/ISO/AVC
Duration : 2 h 56 min
Bit rate mode : Constant
Bit rate : 2 600 kb/s
Width : 1 920 pixels
Height : 870 pixels
Display aspect ratio : 2.2:1
Frame rate mode : Constant
Frame rate : 30.000 FPS
Color space : YUV
Chroma subsampling : 4:2:0
Bit depth : 8 bits
Scan type : Progressive
Bits/(Pixel*Frame) : 0.052
Stream size : 3.11 GiB (95%)
Title : www.5MovieRulz.moda
Language : Telugu
Default : Yes
Forced : No
Color range : Limited
Color primaries : BT.709
Transfer characteristics : BT.709
Matrix coefficients : BT.709

Audio
ID : 2
Format : AAC LC
Format/Info : Advanced Audio Codec Low Complexity
Codec ID : A_AAC-2
Duration : 2 h 56 min
Bit rate : 125 kb/s
Channel(s) : 2 channels
Channel layout : L R
Sampling rate : 48.0 kHz
Frame rate : 46.875 FPS (1024 SPF)
Compression mode : Lossy
Stream size : 159 MiB (5%)
Title : www.5MovieRulz.moda
Language : Telugu
Default : Yes
Forced : No

Files