Haraa (2024) 1080p Tamil TRUE WEB-DL - AVC - (DD+5 1 - 384Kbps & AAC) - 2 3GB - ESub

Haraa is a Tamil movie starring Kokila Mohan, Yogi Babu and D Singampuli in prominent roles. It is directed by Vijay Sri G..

Year: 2024
Duration: 136 min
Release date: Friday 7th June 2024
Genre: Action

Rating

7.1/10
(611 Votes)

0

Your Rating

Stars:
Mohan, Yogi Babu, Manobala, Motta Rajendran, Mime Gopi, Charu Haasan, Anumol K. Manoharan, Suresh Menon

General
Unique ID : 189447500252020396954854099526922821292 (0x8E8642E8A69218C5897557E0B7385EAC)
Complete name : C:\Users\tmanc\Downloads\Qbittorrent\Haraa (2024) 1080p Tamil TRUE WEB-DL - AVC - (DD+5.1 - 384Kbps & AAC) - 2.3GB - ESub.mkv
Format : Matroska
Format version : Version 4
File size : 2.29 GiB
Duration : 2 h 1 min
Overall bit rate : 2 690 kb/s
Frame rate : 24.000 FPS
Movie name : www.5MovieRulz.loans
Encoded date : 2024-07-04 20:12:10 UTC
Writing application : mkvmerge v9.0.0 ('Power to progress') 64bit
Writing library : libebml v1.3.3 + libmatroska v1.4.4

Video
ID : 1
Format : AVC
Format/Info : Advanced Video Codec: Format profile : High@L4
Format settings : CABAC / 4 Ref Frames
Format settings, CABAC : Yes
Format settings, Reference frames : 4 frames
Codec ID : V_MPEG4/ISO/AVC
Duration : 2 h 1 min
Bit rate : 2 176 kb/s
Width : 1 920 pixels
Height : 1 080 pixels
Display aspect ratio : 16:9
Frame rate mode : Constant
Frame rate : 24.000 FPS
Color space : YUV
Chroma subsampling : 4:2:0
Bit depth : 8 bits
Scan type : Progressive
Bits/(Pixel*Frame) : 0.044
Stream size : 1.85 GiB (81%)
Title : www.5MovieRulz.loans
Writing library : x264 core 163
Encoding settings : cabac=1 / ref=2 / deblock=1:0:0 / analyse=0x3:0x113 / me=hex / subme=7 / psy=1 / psy_rd=1.00:0.00 / mixed_ref=1 / me_range=16 / chroma_me=1 / trellis=1 / 8x8dct=1 / cqm=0 / deadzone=21,11 / fast_pskip=1 / chroma_qp_offset=-2 / threads=34 / lookahead_threads=5 / sliced_threads=0 / nr=0 / decimate=1 / interlaced=0 / bluray_compat=0 / constrained_intra=0 / bframes=2 / b_pyramid=2 / b_adapt=1 / b_bias=0 / direct=1 / weightb=1 / open_gop=0 / weightp=2 / keyint=48 / keyint_min=4 / scenecut=0 / intra_refresh=0 / rc_lookahead=40 / rc=crf / mbtree=1 / crf=23.0 / qcomp=0.60 / qpmin=0 / qpmax=69 / qpstep=4 / vbv_maxrate=5400 / vbv_bufsize=2000 / crf_max=0.0 / nal_hrd=none / filler=0 / ip_ratio=1.40 / aq=1:1.00
Language : English
Default : Yes
Forced : No

Audio #1
ID : 2
Format : E-AC-3
Format/Info : Enhanced AC-3
Commercial name : Dolby Digital Plus
Codec ID : A_EAC3
Duration : 2 h 1 min
Bit rate mode : Constant
Bit rate : 384 kb/s
Channel(s) : 6 channels
Channel layout : L R C LFE Ls Rs
Sampling rate : 48.0 kHz
Frame rate : 31.250 FPS (1536 SPF)
Compression mode : Lossy
Stream size : 334 MiB (14%)
Title : www.5MovieRulz.loans
Language : Tamil
Service kind : Complete Main
Default : Yes
Forced : No
Dialog Normalization : -31 dB
dialnorm_Average : -31 dB
dialnorm_Minimum : -31 dB
dialnorm_Maximum : -31 dB

Audio #2
ID : 3
Format : AAC LC
Format/Info : Advanced Audio Codec Low Complexity
Codec ID : A_AAC-2
Duration : 2 h 1 min
Bit rate : 128 kb/s
Channel(s) : 2 channels
Channel layout : L R
Sampling rate : 48.0 kHz
Frame rate : 46.875 FPS (1024 SPF)
Compression mode : Lossy
Stream size : 111 MiB (5%)
Title : www.5MovieRulz.loans
Language : Tamil
Default : No
Forced : No

Text
ID : 4
Format : UTF-8
Codec ID : S_TEXT/UTF8
Codec ID/Info : UTF-8 Plain Text
Duration : 1 h 59 min
Bit rate : 74 b/s
Frame rate : 0.263 FPS
Count of elements : 1884
Stream size : 64.9 KiB (0%)
Title : www.5MovieRulz.loans
Language : English
Default : Yes
Forced : No

Files