Bhaje Vaayu Vegam (2024) 1080p Telugu TRUE WEB-DL - AVC - (DD+5 1 - 640kbps & AAC) - 5 2GB - ESub

A man who is chased by politicians, cops, and gangsters as he escapes accusations of killing an officer.

Year: 2024
Duration: 136 min
Release date: Friday 31st May 2024
Genre: Action

Rating

6.3/10
(248 Votes)

0

Your Rating

Stars:
Tanikella Bharani, Krishna Chaitanya, Keshav Deepak, Kartikeya Gummakonda, Sharath Lohitashwa, Iswarya Menon, P. Ravi Shankar, Rahul Tyson

General
Unique ID : 203754564659543891266315111870016850002 (0x9949B3A51FB50031963D5CF800A50852)
Complete name : C:\Users\tmanc\Downloads\Qbittorrent\Bhaje Vaayu Vegam (2024) 1080p Telugu TRUE WEB-DL - AVC - (DD+5.1 - 640kbps & AAC) - 5.2GB - ESub.mkv
Format : Matroska
Format version : Version 4
File size : 5.19 GiB
Duration : 2 h 13 min
Overall bit rate mode : Variable
Overall bit rate : 5 565 kb/s
Frame rate : 23.812 FPS
Movie name : www.5MovieRulz.moda
Encoded date : 2024-06-27 18:57:59 UTC
Writing application : mkvmerge v9.0.0 ('Power to progress') 64bit
Writing library : libebml v1.3.3 + libmatroska v1.4.4

Video
ID : 1
Format : AVC
Format/Info : Advanced Video Codec: Format profile : Main@L4
Format settings : CABAC / 3 Ref Frames
Format settings, CABAC : Yes
Format settings, Reference frames : 3 frames
Codec ID : V_MPEG4/ISO/AVC
Duration : 2 h 13 min
Bit rate mode : Variable
Bit rate : 4 859 kb/s
Maximum bit rate : 14.4 Mb/s
Width : 1 920 pixels
Height : 1 080 pixels
Display aspect ratio : 16:9
Frame rate mode : Variable
Frame rate : 23.812 FPS
Original frame rate : 23.000 FPS
Color space : YUV
Chroma subsampling : 4:2:0
Bit depth : 8 bits
Scan type : Progressive
Bits/(Pixel*Frame) : 0.098
Stream size : 4.53 GiB (87%)
Title : www.5MovieRulz.moda
Default : Yes
Forced : No

Audio #1
ID : 2
Format : E-AC-3
Format/Info : Enhanced AC-3
Commercial name : Dolby Digital Plus
Codec ID : A_EAC3
Duration : 2 h 13 min
Bit rate mode : Constant
Bit rate : 640 kb/s
Channel(s) : 6 channels
Channel layout : L R C LFE Ls Rs
Sampling rate : 48.0 kHz
Frame rate : 31.250 FPS (1536 SPF)
Compression mode : Lossy
Delay relative to video : -125 ms
Stream size : 611 MiB (11%)
Title : www.5MovieRulz.moda
Language : Telugu
Service kind : Complete Main
Default : Yes
Forced : No
Dialog Normalization : -27 dB
compr : -0.28 dB
dialnorm_Average : -27 dB
dialnorm_Minimum : -27 dB
dialnorm_Maximum : -27 dB

Audio #2
ID : 3
Format : AAC LC SBR
Format/Info : Advanced Audio Codec Low Complexity with Spectral Band Replication
Commercial name : HE-AAC
Format settings : Explicit
Codec ID : A_AAC-2
Duration : 2 h 13 min
Bit rate : 64.0 kb/s
Channel(s) : 2 channels
Channel layout : L R
Sampling rate : 48.0 kHz
Frame rate : 23.438 FPS (2048 SPF)
Compression mode : Lossy
Delay relative to video : -125 ms
Stream size : 61.1 MiB (1%)
Title : www.5MovieRulz.moda
Language : Telugu
Default : No
Forced : No

Text
ID : 4
Format : UTF-8
Codec ID : S_TEXT/UTF8
Codec ID/Info : UTF-8 Plain Text
Duration : 2 h 9 min
Bit rate : 61 b/s
Frame rate : 0.206 FPS
Count of elements : 1602
Stream size : 58.2 KiB (0%)
Title : www.5MovieRulz.moda
Language : English
Default : Yes
Forced : No

Files