Monkey Man 2024 REPACK 2160p UHD BluRay REMUX HDR HEVC TrueHD 7 1 Atmos-CiNEPHiLES

An anonymous young man unleashes a campaign of vengeance against the corrupt leaders who murdered his mother and continue to systemically victimize the poor and powerless.

Year: 2024
Duration: 121 min
Release date: Wednesday 17th April 2024
Genre: Action, Thriller

Rating

7.3/10
(18155 Votes)

0

Your Rating

Stars:
Dev Patel, Sharlto Copley, Pitobash, Vipin Sharma, Sikandar Kher, Adithi Kalkunte, Sobhita Dhulipala, Ashwini Kalsekar

General
Unique ID : 174271967374792556552853968356821821124 (0x831B8F5F01BE29456292C94568E9E6C4)
Complete name : Monkey.Man.2024.REPACK.2160p.UHD.Blu-ray.Remux.HDR.HEVC.TrueHD.Atmos.7.1-CiNEPHiLES.mkv
Format : Matroska
Format version : Version 4
File size : 61.4 GiB
Duration : 2 h 1 min
Overall bit rate mode : Variable
Overall bit rate : 72.3 Mb/s
Frame rate : 23.976 FPS
Movie name : Monkey Man (2024)
Encoded date : 2024-07-05 22:18:47 UTC
Writing application : mkvmerge v83.0 ('Circle Of Friends') 64-bit
Writing library : libebml v1.4.5 + libmatroska v1.7.1
IMDB : tt9214772
TMDB : movie/560016

Video
ID : 1
Format : HEVC
Format/Info : High Efficiency Video Coding
Format profile : Main 10@L5.1@High
HDR format : SMPTE ST 2086, HDR10 compatible
Codec ID : V_MPEGH/ISO/HEVC
Duration : 2 h 1 min
Bit rate : 68.4 Mb/s
Width : 3 840 pixels
Height : 2 160 pixels
Display aspect ratio : 16:9
Frame rate mode : Constant
Frame rate : 23.976 (24000/1001) FPS
Color space : YUV
Chroma subsampling : 4:2:0 (Type 2)
Bit depth : 10 bits
Bits/(Pixel*Frame) : 0.344
Stream size : 58.1 GiB (95%)
Default : Yes
Forced : No
Color range : Limited
Color primaries : BT.2020
Transfer characteristics : PQ
Matrix coefficients : BT.2020 non-constant
Mastering display color primaries : Display P3
Mastering display luminance : min: 0.0010 cd/m2, max: 1000 cd/m2
Maximum Content Light Level : 736 cd/m2
Maximum Frame-Average Light Level : 117 cd/m2
Source : Universal Studios EUR UHD Blu-ray (2024)

Audio #1
ID : 2
Format : MLP FBA 16-ch
Format/Info : Meridian Lossless Packing FBA with 16-channel presentation
Commercial name : Dolby TrueHD with Dolby Atmos
Codec ID : A_TRUEHD
Duration : 2 h 1 min
Bit rate mode : Variable
Bit rate : 2 761 kb/s
Maximum bit rate : 4 044 kb/s
Channel(s) : 8 channels
Channel layout : L R C LFE Ls Rs Lb Rb
Sampling rate : 48.0 kHz
Frame rate : 1 200.000 FPS (40 SPF)
Bit depth : 24 bits
Compression mode : Lossless
Stream size : 2.35 GiB (4%)
Title : Dolby Atmos
Language : English
Default : Yes
Forced : No
Source : Universal Studios EUR UHD Blu-ray (2024)
Number of dynamic objects : 11
Bed channel count : 1 channel
Bed channel configuration : LFE

Audio #2
ID : 3
Format : AC-3
Format/Info : Audio Coding 3
Commercial name : Dolby Digital
Codec ID : A_AC3
Duration : 2 h 1 min
Bit rate mode : Constant
Bit rate : 448 kb/s
Channel(s) : 6 channels
Channel layout : L R C LFE Ls Rs
Sampling rate : 48.0 kHz
Frame rate : 31.250 FPS (1536 SPF)
Compression mode : Lossy
Stream size : 390 MiB (1%)
Title : Compatibility Track
Language : English
Service kind : Complete Main
Default : No
Forced : No
Source : Universal Studios EUR UHD Blu-ray (2024)

Audio #3
ID : 4
Format : AC-3
Format/Info : Audio Coding 3
Commercial name : Dolby Digital
Codec ID : A_AC3
Duration : 2 h 1 min
Bit rate mode : Constant
Bit rate : 192 kb/s
Channel(s) : 2 channels
Channel layout : L R
Sampling rate : 48.0 kHz
Frame rate : 31.250 FPS (1536 SPF)
Compression mode : Lossy
Stream size : 167 MiB (0%)
Title : Commentary with director/actor/writer/producer Dev Patel, producers Jomon Thomas and Sam Sahni, and co-producer Raghuvir Joshi
Language : English
Service kind : Complete Main
Default : No
Forced : No
Source : Universal Studios EUR UHD Blu-ray (2024)

Text #1
ID : 5
Format : UTF-8
Codec ID : S_TEXT/UTF8
Codec ID/Info : UTF-8 Plain Text
Duration : 1 h 52 min
Bit rate : 5 b/s
Frame rate : 0.029 FPS
Count of elements : 195
Stream size : 4.74 KiB (0%)
Title : Forced
Language : English (US)
Default : No
Forced : Yes
Source : Universal Studios EUR UHD Blu-ray (2024)

Text #2
ID : 6
Format : UTF-8
Codec ID : S_TEXT/UTF8
Codec ID/Info : UTF-8 Plain Text
Duration : 1 h 52 min
Bit rate : 30 b/s
Frame rate : 0.142 FPS
Count of elements : 959
Stream size : 25.3 KiB (0%)
Language : English (US)
Default : No
Forced : No
Source : Universal Studios EUR UHD Blu-ray (2024)

Text #3
ID : 7
Format : UTF-8
Codec ID : S_TEXT/UTF8
Codec ID/Info : UTF-8 Plain Text
Duration : 1 h 58 min
Bit rate : 53 b/s
Frame rate : 0.241 FPS
Count of elements : 1718
Stream size : 46.2 KiB (0%)
Title : SDH
Language : English (US)
Default : No
Forced : No
Source : Universal Studios EUR UHD Blu-ray (2024)

Text #4
ID : 8
Format : PGS
Codec ID : S_HDMV/PGS
Codec ID/Info : Picture based subtitle format used on BDs/HD-DVDs
Duration : 1 h 52 min
Bit rate : 2 734 b/s
Frame rate : 0.058 FPS
Count of elements : 390
Stream size : 2.20 MiB (0%)
Title : Forced / PGS
Language : English (US)
Default : No
Forced : No
Source : Universal Studios EUR UHD Blu-ray (2024)

Text #5
ID : 9
Format : PGS
Codec ID : S_HDMV/PGS
Codec ID/Info : Picture based subtitle format used on BDs/HD-DVDs
Duration : 1 h 58 min
Bit rate : 37.2 kb/s
Frame rate : 0.482 FPS
Count of elements : 3436
Stream size : 31.6 MiB (0%)
Title : SDH / PGS
Language : English (US)
Default : No
Forced : No
Source : Universal Studios EUR UHD Blu-ray (2024)

Text #6
ID : 10
Format : UTF-8
Codec ID : S_TEXT/UTF8
Codec ID/Info : UTF-8 Plain Text
Duration : 2 h 0 min
Bit rate : 41 b/s
Frame rate : 0.126 FPS
Count of elements : 912
Stream size : 36.7 KiB (0%)
Language : Bulgarian
Default : No
Forced : No
Source : iTunes WEB-DL

Text #7
ID : 11
Format : UTF-8
Codec ID : S_TEXT/UTF8
Codec ID/Info : UTF-8 Plain Text
Duration : 2 h 0 min
Bit rate : 26 b/s
Frame rate : 0.114 FPS
Count of elements : 824
Stream size : 23.0 KiB (0%)
Language : Czech
Default : No
Forced : No
Source : iTunes WEB-DL

Text #8
ID : 12
Format : UTF-8
Codec ID : S_TEXT/UTF8
Codec ID/Info : UTF-8 Plain Text
Duration : 2 h 0 min
Bit rate : 24 b/s
Frame rate : 0.093 FPS
Count of elements : 670
Stream size : 21.5 KiB (0%)
Language : Dutch
Default : No
Forced : No
Source : iTunes WEB-DL

Text #9
ID : 13
Format : PGS
Codec ID : S_HDMV/PGS
Codec ID/Info : Picture based subtitle format used on BDs/HD-DVDs
Duration : 2 h 0 min
Bit rate : 17.1 kb/s
Frame rate : 0.186 FPS
Count of elements : 1344
Stream size : 14.8 MiB (0%)
Title : PGS
Language : Dutch
Default : No
Forced : No
Source : Universal Studios EUR UHD Blu-ray (2024)

Text #10
ID : 14
Format : UTF-8
Codec ID : S_TEXT/UTF8
Codec ID/Info : UTF-8 Plain Text
Duration : 2 h 0 min
Bit rate : 30 b/s
Frame rate : 0.127 FPS
Count of elements : 916
Stream size : 26.7 KiB (0%)
Title : Canadian
Language : French (CA)
Default : No
Forced : No
Source : iTunes WEB-DL

Text #11
ID : 15
Format : PGS
Codec ID : S_HDMV/PGS
Codec ID/Info : Picture based subtitle format used on BDs/HD-DVDs
Duration : 2 h 0 min
Bit rate : 17.4 kb/s
Frame rate : 0.246 FPS
Count of elements : 1780
Stream size : 15.0 MiB (0%)
Title : Parisian
Language : French (FR)
Default : No
Forced : No
Source : Universal Studios EUR UHD Blu-ray (2024)

Text #12
ID : 16
Format : UTF-8
Codec ID : S_TEXT/UTF8
Codec ID/Info : UTF-8 Plain Text
Duration : 2 h 0 min
Bit rate : 28 b/s
Frame rate : 0.113 FPS
Count of elements : 813
Stream size : 25.2 KiB (0%)
Language : German
Default : No
Forced : No
Source : iTunes WEB-DL

Text #13
ID : 17
Format : PGS
Codec ID : S_HDMV/PGS
Codec ID/Info : Picture based subtitle format used on BDs/HD-DVDs
Duration : 2 h 0 min
Bit rate : 20.2 kb/s
Frame rate : 0.226 FPS
Count of elements : 1634
Stream size : 17.4 MiB (0%)
Title : PGS
Language : German
Default : No
Forced : No
Source : Universal Studios EUR UHD Blu-ray (2024)

Text #14
ID : 18
Format : UTF-8
Codec ID : S_TEXT/UTF8
Codec ID/Info : UTF-8 Plain Text
Duration : 2 h 0 min
Bit rate : 35 b/s
Frame rate : 0.127 FPS
Count of elements : 918
Stream size : 31.2 KiB (0%)
Language : Hebrew
Default : No
Forced : No
Source : iTunes WEB-DL

Text #15
ID : 19
Format : UTF-8
Codec ID : S_TEXT/UTF8
Codec ID/Info : UTF-8 Plain Text
Duration : 2 h 0 min
Bit rate : 26 b/s
Frame rate : 0.127 FPS
Count of elements : 916
Stream size : 23.4 KiB (0%)
Language : Hungarian
Default : No
Forced : No
Source : iTunes WEB-DL

Text #16
ID : 20
Format : UTF-8
Codec ID : S_TEXT/UTF8
Codec ID/Info : UTF-8 Plain Text
Duration : 2 h 0 min
Bit rate : 27 b/s
Frame rate : 0.119 FPS
Count of elements : 858
Stream size : 24.4 KiB (0%)
Language : Italian
Default : No
Forced : No
Source : iTunes WEB-DL

Text #17
ID : 21
Format : PGS
Codec ID : S_HDMV/PGS
Codec ID/Info : Picture based subtitle format used on BDs/HD-DVDs
Duration : 2 h 0 min
Bit rate : 18.7 kb/s
Frame rate : 0.237 FPS
Count of elements : 1710
Stream size : 16.2 MiB (0%)
Title : PGS
Language : Italian
Default : No
Forced : No
Source : Universal Studios EUR UHD Blu-ray (2024)

Text #18
ID : 22
Format : UTF-8
Codec ID : S_TEXT/UTF8
Codec ID/Info : UTF-8 Plain Text
Duration : 2 h 0 min
Bit rate : 21 b/s
Frame rate : 0.127 FPS
Count of elements : 920
Stream size : 19.2 KiB (0%)
Title : Traditional
Language : Mandarin (Hant)
Default : No
Forced : No
Source : iTunes WEB-DL

Text #19
ID : 23
Format : UTF-8
Codec ID : S_TEXT/UTF8
Codec ID/Info : UTF-8 Plain Text
Duration : 2 h 0 min
Bit rate : 29 b/s
Frame rate : 0.126 FPS
Count of elements : 912
Stream size : 26.0 KiB (0%)
Title : Iberian
Language : Portuguese (PT)
Default : No
Forced : No
Source : iTunes WEB-DL

Text #20
ID : 24
Format : UTF-8
Codec ID : S_TEXT/UTF8
Codec ID/Info : UTF-8 Plain Text
Duration : 2 h 0 min
Bit rate : 26 b/s
Frame rate : 0.125 FPS
Count of elements : 905
Stream size : 23.3 KiB (0%)
Language : Slovak
Default : No
Forced : No
Source : iTunes WEB-DL

Text #21
ID : 25
Format : UTF-8
Codec ID : S_TEXT/UTF8
Codec ID/Info : UTF-8 Plain Text
Duration : 2 h 0 min
Bit rate : 39 b/s
Frame rate : 0.127 FPS
Count of elements : 921
Stream size : 34.6 KiB (0%)
Language : Vietnamese
Default : No
Forced : No
Source : iTunes WEB-DL

Text #22
ID : 26
Format : UTF-8
Codec ID : S_TEXT/UTF8
Codec ID/Info : UTF-8 Plain Text
Duration : 1 h 57 min
Bit rate : 119 b/s
Frame rate : 0.324 FPS
Count of elements : 2277
Stream size : 103 KiB (0%)
Title : Commentary with director/actor/writer/producer Dev Patel, producers Jomon Thomas and Sam Sahni, and co-producer Raghuvir Joshi
Language : English (US)
Default : No
Forced : No
Source : Universal Studios EUR UHD Blu-ray (2024)

Text #23
ID : 27
Format : PGS
Codec ID : S_HDMV/PGS
Codec ID/Info : Picture based subtitle format used on BDs/HD-DVDs
Duration : 1 h 57 min
Bit rate : 81.1 kb/s
Frame rate : 0.648 FPS
Count of elements : 4554
Stream size : 67.9 MiB (0%)
Title : Commentary with director/actor/writer/producer Dev Patel, producers Jomon Thomas and Sam Sahni, and co-producer Raghuvir Joshi / PGS
Language : English (US)
Default : No
Forced : No
Source : Universal Studios EUR UHD Blu-ray (2024)

Text #24
ID : 28
Format : PGS
Codec ID : S_HDMV/PGS
Codec ID/Info : Picture based subtitle format used on BDs/HD-DVDs
Duration : 2 h 1 min
Bit rate : 68.3 kb/s
Frame rate : 0.610 FPS
Count of elements : 4452
Stream size : 59.4 MiB (0%)
Title : Commentary with director/actor/writer/producer Dev Patel, producers Jomon Thomas and Sam Sahni, and co-producer Raghuvir Joshi
Language : French (FR)
Default : No
Forced : No
Source : Universal Studios EUR UHD Blu-ray (2024)

Text #25
ID : 29
Format : PGS
Codec ID : S_HDMV/PGS
Codec ID/Info : Picture based subtitle format used on BDs/HD-DVDs
Duration : 2 h 1 min
Bit rate : 71.4 kb/s
Frame rate : 0.576 FPS
Count of elements : 4197
Stream size : 62.1 MiB (0%)
Title : Commentary with director/actor/writer/producer Dev Patel, producers Jomon Thomas and Sam Sahni, and co-producer Raghuvir Joshi
Language : German
Default : No
Forced : No
Source : Universal Studios EUR UHD Blu-ray (2024)

Text #26
ID : 30
Format : PGS
Codec ID : S_HDMV/PGS
Codec ID/Info : Picture based subtitle format used on BDs/HD-DVDs
Duration : 2 h 1 min
Bit rate : 67.8 kb/s
Frame rate : 0.601 FPS
Count of elements : 4386
Stream size : 59.0 MiB (0%)
Title : Commentary with director/actor/writer/producer Dev Patel, producers Jomon Thomas and Sam Sahni, and co-producer Raghuvir Joshi
Language : Italian
Default : No
Forced : No
Source : Universal Studios EUR UHD Blu-ray (2024)

Menu
00:00:00.000 : en:Chapter 01
00:05:37.503 : en:Chapter 02
00:10:43.351 : en:Chapter 03
00:14:33.372 : en:Chapter 04
00:21:34.293 : en:Chapter 05
00:26:48.732 : en:Chapter 06
00:33:47.817 : en:Chapter 07
00:38:59.587 : en:Chapter 08
00:43:32.818 : en:Chapter 09
00:52:15.966 : en:Chapter 10
00:59:09.587 : en:Chapter 11
01:06:53.801 : en:Chapter 12
01:14:37.055 : en:Chapter 13
01:18:59.276 : en:Chapter 14
01:23:05.897 : en:Chapter 15
01:30:20.832 : en:Chapter 16
01:35:47.700 : en:Chapter 17
01:41:39.009 : en:Chapter 18
01:48:03.226 : en:Chapter 19
01:53:48.154 : en:Chapter 20

Source #1: Universal Studios EUR UHD Blu-ray (2024) - thanks SharpHD!
Source #2: iTunes WEB-DL - thanks vevv!

- Video, audio, commentary, PGS subtitles from Source #1
- Additional SRT subtitles sync'd from Source #3

Repacked for superior video and no hardcoded forced English subtitles.
English PGS subtitles OCR'd to SRT and non-SDH version created.

Files