Stop Or My Mom Will Shoot (1992) (1080p BluRay x265 10-bit SDR OPUS 2 0 English-DarQ)

A tough detective's mother comes to visit him and begins to meddle in his life and career.

Year: 1992
Duration: 87 min
Release date: Friday 21st February 1992
Genre: Action, Comedy

Rating

4.1/10
(18500 Votes)

0

Your Rating

Stars:
Sylvester Stallone, Estelle Getty, JoBeth Williams, Roger Rees

Stop! Or My Mom Will Shoot (1992)

General
Unique ID : 319065277566902951518952076544325997590 (0xF009BCBAF9F0953D54970304CE405416)
Complete name : Stop! Or My Mom Will Shoot (1992) (1080p BluRay x265 10-bit SDR OPUS 2.0 English-DarQ).mkv
Format : Matroska
Format version : Version 4
File size : 3.19 GiB
Duration : 1 h 27 min
Overall bit rate : 5 247 kb/s
Movie name : Stop! Or My Mom Will Shoot (1992)
Encoded date : UTC 2024-07-04 18:54:29
Writing application : mkvmerge v85.0 ('Shame For You') 64-bit
Writing library : libebml v1.4.5 + libmatroska v1.7.1

Video
ID : 1
Format : HEVC
Format/Info : High Efficiency Video Coding
Format profile : Main 10@L5@Main
Codec ID : V_MPEGH/ISO/HEVC
Duration : 1 h 27 min
Bit rate : 4 999 kb/s
Width : 1 920 pixels
Height : 1 040 pixels
Display aspect ratio : 1.85:1
Frame rate mode : Constant
Frame rate : 23.976 (24000/1001) FPS
Color space : YUV
Chroma subsampling : 4:2:0
Bit depth : 10 bits
Bits/(Pixel*Frame) : 0.104
Stream size : 3.04 GiB (95%)
Writing library : x265 3.6+13+1-726aec126:[Windows][MSVC 1939][64 bit] 10bit
Encoding settings : cpuid=1111039 / frame-threads=3 / numa-pools=10 / wpp / no-pmode / no-pme / no-psnr / no-ssim / log-level=2 / input-csp=1 / input-res=1920x1040 / interlace=0 / total-frames=125293 / level-idc=0 / high-tier=1 / uhd-bd=0 / ref=6 / no-allow-non-conformance / no-repeat-headers / annexb / no-aud / no-eob / no-eos / no-hrd / info / hash=0 / temporal-layers=0 / open-gop / min-keyint=23 / keyint=250 / gop-lookahead=0 / bframes=4 / b-adapt=2 / b-pyramid / bframe-bias=0 / rc-lookahead=25 / lookahead-slices=4 / scenecut=40 / no-hist-scenecut / radl=0 / no-splice / no-intra-refresh / ctu=64 / min-cu-size=8 / rect / no-amp / max-tu-size=32 / tu-inter-depth=1 / tu-intra-depth=1 / limit-tu=0 / rdoq-level=2 / dynamic-rd=0.00 / no-ssim-rd / signhide / no-tskip / nr-intra=0 / nr-inter=0 / no-constrained-intra / strong-intra-smoothing / max-merge=3 / limit-refs=3 / limit-modes / me=3 / subme=5 / merange=57 / temporal-mvp / no-frame-dup / no-hme / weightp / no-weightb / no-analyze-src-pics / deblock=0:0 / sao / no-sao-non-deblock / rd=4 / selective-sao=4 / no-early-skip / rskip / no-fast-intra / no-tskip-fast / no-cu-lossless / no-b-intra / no-splitrd-skip / rdpenalty=0 / psy-rd=1.60 / psy-rdoq=1.00 / no-rd-refine / no-lossless / cbqpoffs=0 / crqpoffs=0 / rc=crf / crf=17.0 / qcomp=0.60 / qpstep=4 / stats-write=0 / stats-read=0 / ipratio=1.40 / pbratio=1.30 / aq-mode=3 / aq-strength=0.60 / aq-bias-strength=1.00 / cutree / zone-count=0 / no-strict-cbr / qg-size=32 / no-rc-grain / qpmax=69 / qpmin=0 / no-const-vbv / sar=0 / overscan=0 / videoformat=5 / range=0 / colorprim=1 / transfer=1 / colormatrix=1 / chromaloc=0 / display-window=0 / cll=0,0 / min-luma=0 / max-luma=1023 / log2-max-poc-lsb=8 / vui-timing-info / vui-hrd-info / slices=1 / no-opt-qp-pps / no-opt-ref-list-length-pps / no-multi-pass-opt-rps / scenecut-bias=0.05 / no-opt-cu-delta-qp / no-aq-motion / no-hdr10 / no-hdr10-opt / no-dhdr10-opt / no-idr-recovery-sei / analysis-reuse-level=0 / analysis-save-reuse-level=0 / analysis-load-reuse-level=0 / scale-factor=0 / refine-intra=0 / refine-inter=0 / refine-mv=1 / refine-ctu-distortion=0 / no-limit-sao / ctu-info=0 / no-lowpass-dct / refine-analysis-type=0 / copy-pic=1 / max-ausize-factor=1.0 / no-dynamic-refine / no-single-sei / no-hevc-aq / no-svt / no-field / qp-adaptation-range=1.00 / scenecut-aware-qp=0 / conformance-window-offsets / right=0 / bottom=0 / decoder-max-rate=0 / no-vbv-live-multi-pass / no-mcstf / no-sbrc
Default : Yes
Forced : No
Color range : Limited
Color primaries : BT.709
Transfer characteristics : BT.709
Matrix coefficients : BT.709

Audio
ID : 2
Format : Opus
Codec ID : A_OPUS
Duration : 1 h 27 min
Bit rate : 246 kb/s
Channel(s) : 2 channels
Channel layout : L R
Sampling rate : 48.0 kHz
Frame rate : 50.000 FPS (960 SPF)
Compression mode : Lossy
Stream size : 153 MiB (5%)
Writing library : Lavc60.36.100 libopus
Language : English
Default : No
Forced : No

Text #1
ID : 3
Format : UTF-8
Codec ID : S_TEXT/UTF8
Codec ID/Info : UTF-8 Plain Text
Duration : 1 h 20 min
Bit rate : 53 b/s
Count of elements : 904
Stream size : 31.6 KiB (0%)
Language : English
Default : Yes
Forced : No

Text #2
ID : 4
Format : UTF-8
Codec ID : S_TEXT/UTF8
Codec ID/Info : UTF-8 Plain Text
Duration : 1 h 22 min
Bit rate : 57 b/s
Count of elements : 905
Stream size : 34.7 KiB (0%)
Language : German
Default : Yes
Forced : No

Text #3
ID : 5
Format : UTF-8
Codec ID : S_TEXT/UTF8
Codec ID/Info : UTF-8 Plain Text
Duration : 1 h 20 min
Bit rate : 51 b/s
Count of elements : 904
Stream size : 30.8 KiB (0%)
Language : Italian
Default : Yes
Forced : No

Menu
00:00:00.000 : en:Chapter 1
00:05:49.683 : en:Chapter 2
00:16:05.548 : en:Chapter 3
00:22:05.199 : en:Chapter 4
00:28:22.326 : en:Chapter 5
00:36:53.128 : en:Chapter 6
00:44:45.933 : en:Chapter 7
00:52:33.984 : en:Chapter 8
00:57:48.131 : en:Chapter 9
01:05:22.085 : en:Chapter 10
01:15:03.916 : en:Chapter 11
01:23:32.090 : en:Chapter 12

Report created by : MediaInfoLib - v21.09

Files