Raiders of the Lost Ark 1981 UHD BluRay 1080p DDP 7 1 DoVi HDR x265-SM737

Archeologist and adventurer Indiana Jones is hired by the US government to find the Ark of the Covenant before the Nazis.

Year: 1981
Duration: 115 min
Release date: Friday 12th June 1981
Genre: Action, Adventure

Rating

8.7/10
(254620 Votes)

0

Your Rating

Stars:
Harrison Ford, Karen Allen, Paul Freeman, John Rhys-Davies

https://www.imdb.com/title/tt0082971/

General
Unique ID : 340005328725801756261239382931114761102 (0xFFCAA4F660AE3BBB1E932396D0D71B8E)
Complete name : Raiders.of.the.Lost.Ark.1981.UHD.BluRay.1080p.DDP.7.1.DoVi.HDR.x265-SM737.mkv
Format : Matroska
Format version : Version 4
File size : 5.50 GiB
Duration : 1 h 55 min
Overall bit rate : 6 834 kb/s
Frame rate : 23.976 FPS
Encoded date : 2024-06-28 05:52:33 UTC
Writing application : mkvmerge v82.0 ('I'm The President') 64-bit
Writing library : libebml v1.4.5 + libmatroska v1.7.1 / Lavf61.1.100

Video
ID : 1
Format : HEVC
Format/Info : High Efficiency Video Coding
Format profile : Main 10@L5.2@High
HDR format : Dolby Vision, Version 1.0, dvhe.08.10, BL+RPU, HDR10 compatible / SMPTE ST 2086, HDR10 compatible / SMPTE ST 2086, HDR10 compatible
Codec ID : V_MPEGH/ISO/HEVC
Duration : 1 h 55 min
Bit rate : 5 042 kb/s
Width : 1 920 pixels
Height : 816 pixels
Display aspect ratio : 2.35:1
Frame rate mode : Constant
Frame rate : 23.976 (24000/1001) FPS
Color space : YUV
Chroma subsampling : 4:2:0 (Type 2)
Bit depth : 10 bits
Bits/(Pixel*Frame) : 0.134
Stream size : 4.06 GiB (74%)
Writing library : x265 3.6+1-aa7f602f7:[Windows][GCC 13.2.0][64 bit] 10bit
Encoding settings : cpuid=1111039 / frame-threads=4 / numa-pools=16 / wpp / no-pmode / no-pme / no-psnr / no-ssim / log-level=2 / input-csp=1 / input-res=1920x816 / interlace=0 / total-frames=0 / level-idc=52 / high-tier=1 / uhd-bd=0 / ref=6 / no-allow-non-conformance / repeat-headers / annexb / aud / no-eob / no-eos / hrd / info / hash=0 / temporal-layers=0 / open-gop / min-keyint=24 / keyint=240 / gop-lookahead=0 / bframes=8 / b-adapt=2 / b-pyramid / bframe-bias=0 / rc-lookahead=40 / lookahead-slices=4 / scenecut=40 / no-hist-scenecut / radl=0 / no-splice / no-intra-refresh / ctu=64 / min-cu-size=8 / rect / no-amp / max-tu-size=32 / tu-inter-depth=1 / tu-intra-depth=1 / limit-tu=0 / rdoq-level=2 / dynamic-rd=0.00 / no-ssim-rd / signhide / no-tskip / nr-intra=0 / nr-inter=0 / no-constrained-intra / strong-intra-smoothing / max-merge=3 / limit-refs=3 / limit-modes / me=3 / subme=3 / merange=57 / temporal-mvp / no-frame-dup / no-hme / no-weightp / no-weightb / no-analyze-src-pics / deblock=-3:-3 / no-sao / no-sao-non-deblock / rd=4 / selective-sao=0 / no-early-skip / rskip / no-fast-intra / no-tskip-fast / no-cu-lossless / no-b-intra / no-splitrd-skip / rdpenalty=0 / psy-rd=2.00 / psy-rdoq=1.00 / no-rd-refine / no-lossless / cbqpoffs=0 / crqpoffs=0 / rc=abr / bitrate=5000 / qcomp=0.60 / qpstep=4 / stats-write=0 / stats-read=2 / cplxblur=20.0 / qblur=0.5 / vbv-maxrate=240000 / vbv-bufsize=240000 / vbv-init=0.9 / min-vbv-fullness=50.0 / max-vbv-fullness=80.0 / ipratio=1.40 / pbratio=1.30 / aq-mode=4 / aq-strength=1.00 / cutree / zone-count=0 / no-strict-cbr / qg-size=32 / no-rc-grain / qpmax=69 / qpmin=0 / no-const-vbv / sar=1 / overscan=0 / videoformat=5 / range=0 / colorprim=9 / transfer=16 / colormatrix=9 / chromaloc=1 / chromaloc-top=2 / chromaloc-bottom=2 / display-window=0 / master-display=G(13250,34500)B(7500,3000)R(34000,16000)WP(15635,16450)L(40000000,50) / cll=1000,551 / min-luma=0 / max-luma=1023 / log2-max-poc-lsb=8 / vui-timing-info / vui-hrd-info / slices=1 / no-opt-qp-pps / no-opt-ref-list-length-pps / no-multi-pass-opt-rps / scenecut-bias=0.05 / no-opt-cu-delta-qp / no-aq-motion / hdr10 / hdr10-opt / no-dhdr10-opt / no-idr-recovery-sei / analysis-reuse-level=0 / analysis-save-reuse-level=0 / analysis-load-reuse-level=0 / scale-factor=0 / refine-intra=0 / refine-inter=0 / refine-mv=1 / refine-ctu-distortion=0 / no-limit-sao / ctu-info=0 / no-lowpass-dct / refine-analysis-type=0 / copy-pic=1 / max-ausize-factor=1.0 / no-dynamic-refine / no-single-sei / no-hevc-aq / no-svt / no-field / qp-adaptation-range=1.00 / scenecut-aware-qp=0conformance-window-offsets / right=0 / bottom=0 / decoder-max-rate=0 / no-vbv-live-multi-pass / no-mcstf / no-sbrc
Default : Yes
Forced : No
Color range : Limited
Color primaries : BT.2020
Transfer characteristics : PQ
Matrix coefficients : BT.2020 non-constant
Mastering display color primaries : Display P3
Mastering display luminance : min: 0.0050 cd/m2, max: 4000 cd/m2
Maximum Content Light Level : 1000
MaxCLL_Original : 1000 cd/m2
Maximum Frame-Average Light Level : 551
MaxFALL_Original : 551 cd/m2

Audio #1
ID : 2
Format : E-AC-3
Format/Info : Enhanced AC-3
Commercial name : Dolby Digital Plus
Codec ID : A_EAC3
Duration : 1 h 55 min
Bit rate mode : Constant
Bit rate : 1 024 kb/s
Channel(s) : 8 channels
Channel layout : L R C LFE Ls Rs Lb Rb
Sampling rate : 48.0 kHz
Frame rate : 31.250 FPS (1536 SPF)
Compression mode : Lossy
Stream size : 844 MiB (15%)
Title : Surround
Language : English
Service kind : Complete Main
Default : Yes
Forced : No

Audio #2
ID : 3
Format : AC-3
Format/Info : Audio Coding 3
Commercial name : Dolby Digital
Format settings : Dolby Surround EX
Codec ID : A_AC3
Duration : 1 h 55 min
Bit rate mode : Constant
Bit rate : 640 kb/s
Channel(s) : 6 channels
Channel layout : L R C LFE Ls Rs
Sampling rate : 48.0 kHz
Frame rate : 31.250 FPS (1536 SPF)
Compression mode : Lossy
Stream size : 528 MiB (9%)
Title : AC-3 5.1-EX
Language : English
Service kind : Complete Main
Default : Yes
Forced : No

Text #1
ID : 4
Format : PGS
Muxing mode : zlib
Codec ID : S_HDMV/PGS
Codec ID/Info : Picture based subtitle format used on BDs/HD-DVDs
Duration : 1 h 49 min
Bit rate : 26.1 kb/s
Frame rate : 0.372 FPS
Count of elements : 2450
Stream size : 20.4 MiB (0%)
Title : English (SDH)
Language : English
Default : Yes
Forced : No

Text #2
ID : 5
Format : PGS
Muxing mode : zlib
Codec ID : S_HDMV/PGS
Codec ID/Info : Picture based subtitle format used on BDs/HD-DVDs
Duration : 1 h 48 min
Bit rate : 21.9 kb/s
Frame rate : 0.311 FPS
Count of elements : 2014
Stream size : 17.0 MiB (0%)
Title : English
Language : English
Default : No
Forced : No

Text #3
ID : 6
Format : PGS
Muxing mode : zlib
Codec ID : S_HDMV/PGS
Codec ID/Info : Picture based subtitle format used on BDs/HD-DVDs
Duration : 1 h 53 min
Bit rate : 15.5 kb/s
Frame rate : 0.179 FPS
Count of elements : 1212
Stream size : 12.5 MiB (0%)
Title : Catalan
Language : Catalan
Default : No
Forced : No

Text #4
ID : 7
Format : PGS
Muxing mode : zlib
Codec ID : S_HDMV/PGS
Codec ID/Info : Picture based subtitle format used on BDs/HD-DVDs
Duration : 1 h 52 min
Bit rate : 12.2 kb/s
Frame rate : 0.175 FPS
Count of elements : 1184
Stream size : 9.90 MiB (0%)
Title : Chinese (Cantonese)
Language : Chinese
Default : No
Forced : No

Text #5
ID : 8
Format : PGS
Muxing mode : zlib
Codec ID : S_HDMV/PGS
Codec ID/Info : Picture based subtitle format used on BDs/HD-DVDs
Duration : 1 h 54 min
Bit rate : 16.6 kb/s
Frame rate : 0.245 FPS
Count of elements : 1690
Stream size : 13.6 MiB (0%)
Title : Chinese (Simplified)
Language : Chinese
Default : No
Forced : No

Text #6
ID : 9
Format : PGS
Muxing mode : zlib
Codec ID : S_HDMV/PGS
Codec ID/Info : Picture based subtitle format used on BDs/HD-DVDs
Duration : 1 h 54 min
Bit rate : 13.3 kb/s
Frame rate : 0.226 FPS
Count of elements : 1558
Stream size : 10.9 MiB (0%)
Title : Chinese (Traditional)
Language : Chinese
Default : No
Forced : No

Text #7
ID : 10
Format : PGS
Muxing mode : zlib
Codec ID : S_HDMV/PGS
Codec ID/Info : Picture based subtitle format used on BDs/HD-DVDs
Duration : 1 h 53 min
Bit rate : 16.2 kb/s
Frame rate : 0.175 FPS
Count of elements : 1184
Stream size : 13.1 MiB (0%)
Title : Czech
Language : Czech
Default : No
Forced : No

Text #8
ID : 11
Format : PGS
Muxing mode : zlib
Codec ID : S_HDMV/PGS
Codec ID/Info : Picture based subtitle format used on BDs/HD-DVDs
Duration : 1 h 53 min
Bit rate : 16.1 kb/s
Frame rate : 0.180 FPS
Count of elements : 1222
Stream size : 13.0 MiB (0%)
Title : Danish
Language : Danish
Default : No
Forced : No

Text #9
ID : 12
Format : PGS
Muxing mode : zlib
Codec ID : S_HDMV/PGS
Codec ID/Info : Picture based subtitle format used on BDs/HD-DVDs
Duration : 1 h 53 min
Bit rate : 16.1 kb/s
Frame rate : 0.167 FPS
Count of elements : 1134
Stream size : 13.0 MiB (0%)
Title : Dutch
Language : Dutch
Default : No
Forced : No

Text #10
ID : 13
Format : PGS
Muxing mode : zlib
Codec ID : S_HDMV/PGS
Codec ID/Info : Picture based subtitle format used on BDs/HD-DVDs
Duration : 1 h 53 min
Bit rate : 16.3 kb/s
Frame rate : 0.169 FPS
Count of elements : 1146
Stream size : 13.2 MiB (0%)
Title : Finnish
Language : Finnish
Default : No
Forced : No

Text #11
ID : 14
Format : PGS
Muxing mode : zlib
Codec ID : S_HDMV/PGS
Codec ID/Info : Picture based subtitle format used on BDs/HD-DVDs
Duration : 1 h 49 min
Bit rate : 22.5 kb/s
Frame rate : 0.306 FPS
Count of elements : 2018
Stream size : 17.7 MiB (0%)
Title : French (Canadian)
Language : French
Default : No
Forced : No

Text #12
ID : 15
Format : PGS
Muxing mode : zlib
Codec ID : S_HDMV/PGS
Codec ID/Info : Picture based subtitle format used on BDs/HD-DVDs
Duration : 1 h 54 min
Bit rate : 17.0 kb/s
Frame rate : 0.171 FPS
Count of elements : 1176
Stream size : 13.9 MiB (0%)
Title : French (Parisian)
Language : French
Default : No
Forced : No

Text #13
ID : 16
Format : PGS
Muxing mode : zlib
Codec ID : S_HDMV/PGS
Codec ID/Info : Picture based subtitle format used on BDs/HD-DVDs
Duration : 1 h 54 min
Bit rate : 18.0 kb/s
Frame rate : 0.172 FPS
Count of elements : 1184
Stream size : 14.7 MiB (0%)
Title : German
Language : German
Default : No
Forced : No

Text #14
ID : 17
Format : PGS
Muxing mode : zlib
Codec ID : S_HDMV/PGS
Codec ID/Info : Picture based subtitle format used on BDs/HD-DVDs
Duration : 1 h 54 min
Bit rate : 17.6 kb/s
Frame rate : 0.173 FPS
Count of elements : 1194
Stream size : 14.5 MiB (0%)
Title : Italian
Language : Italian
Default : No
Forced : No

Text #15
ID : 18
Format : PGS
Muxing mode : zlib
Codec ID : S_HDMV/PGS
Codec ID/Info : Picture based subtitle format used on BDs/HD-DVDs
Duration : 1 h 48 min
Bit rate : 13.5 kb/s
Frame rate : 0.208 FPS
Count of elements : 1352
Stream size : 10.5 MiB (0%)
Title : Japanese
Language : Japanese
Default : No
Forced : No

Text #16
ID : 19
Format : PGS
Muxing mode : zlib
Codec ID : S_HDMV/PGS
Codec ID/Info : Picture based subtitle format used on BDs/HD-DVDs
Duration : 1 h 54 min
Bit rate : 11.5 kb/s
Frame rate : 0.225 FPS
Count of elements : 1548
Stream size : 9.46 MiB (0%)
Title : Korean
Language : Korean
Default : No
Forced : No

Text #17
ID : 20
Format : PGS
Muxing mode : zlib
Codec ID : S_HDMV/PGS
Codec ID/Info : Picture based subtitle format used on BDs/HD-DVDs
Duration : 1 h 53 min
Bit rate : 14.8 kb/s
Frame rate : 0.172 FPS
Count of elements : 1168
Stream size : 12.0 MiB (0%)
Title : Norwegian
Language : Norwegian
Default : No
Forced : No

Text #18
ID : 21
Format : PGS
Muxing mode : zlib
Codec ID : S_HDMV/PGS
Codec ID/Info : Picture based subtitle format used on BDs/HD-DVDs
Duration : 1 h 54 min
Bit rate : 15.6 kb/s
Frame rate : 0.171 FPS
Count of elements : 1178
Stream size : 12.8 MiB (0%)
Title : Polish
Language : Polish
Default : No
Forced : No

Text #19
ID : 22
Format : PGS
Muxing mode : zlib
Codec ID : S_HDMV/PGS
Codec ID/Info : Picture based subtitle format used on BDs/HD-DVDs
Duration : 1 h 50 min
Bit rate : 16.1 kb/s
Frame rate : 0.180 FPS
Count of elements : 1192
Stream size : 12.7 MiB (0%)
Title : Portuguese (Brazilian)
Language : Portuguese
Default : No
Forced : No

Text #20
ID : 23
Format : PGS
Muxing mode : zlib
Codec ID : S_HDMV/PGS
Codec ID/Info : Picture based subtitle format used on BDs/HD-DVDs
Duration : 1 h 54 min
Bit rate : 16.5 kb/s
Frame rate : 0.168 FPS
Count of elements : 1158
Stream size : 13.5 MiB (0%)
Title : Russian
Language : Russian
Default : No
Forced : No

Text #21
ID : 24
Format : PGS
Muxing mode : zlib
Codec ID : S_HDMV/PGS
Codec ID/Info : Picture based subtitle format used on BDs/HD-DVDs
Duration : 1 h 54 min
Bit rate : 16.6 kb/s
Frame rate : 0.172 FPS
Count of elements : 1186
Stream size : 13.6 MiB (0%)
Title : Spanish (Castilian)
Language : Spanish
Default : No
Forced : No

Text #22
ID : 25
Format : PGS
Muxing mode : zlib
Codec ID : S_HDMV/PGS
Codec ID/Info : Picture based subtitle format used on BDs/HD-DVDs
Duration : 1 h 50 min
Bit rate : 16.3 kb/s
Frame rate : 0.186 FPS
Count of elements : 1232
Stream size : 12.8 MiB (0%)
Title : Spanish (Latin American)
Language : Spanish
Default : No
Forced : No

Text #23
ID : 26
Format : PGS
Muxing mode : zlib
Codec ID : S_HDMV/PGS
Codec ID/Info : Picture based subtitle format used on BDs/HD-DVDs
Duration : 1 h 53 min
Bit rate : 14.5 kb/s
Frame rate : 0.172 FPS
Count of elements : 1168
Stream size : 11.7 MiB (0%)
Title : Swedish
Language : Swedish
Default : No
Forced : No

Text #24
ID : 27
Format : PGS
Muxing mode : zlib
Codec ID : S_HDMV/PGS
Codec ID/Info : Picture based subtitle format used on BDs/HD-DVDs
Duration : 1 h 54 min
Bit rate : 14.2 kb/s
Frame rate : 0.235 FPS
Count of elements : 1620
Stream size : 11.6 MiB (0%)
Title : Thai
Language : Thai
Default : No
Forced : No

Raiders.of.the.Lost.Ark.1981.UHD.BluRay.2160p.TrueHD.Atmos.7.1.DV.HEVC.REMUX-FraMeSToR

Files