Grandview U S A 1984 1080p BluRay x264-HeMi

Life in the small town of Grandview, Illinois is one that is just like any other city or town. Tim Pearson...

Year: 1984
Duration: 97 min
Release date: Friday 3rd August 1984
Genre: Drama

Rating

4.8/10
(895 Votes)

0

Your Rating

Stars:
Jamie Lee Curtis, C. Thomas Howell, Patrick Swayze, Troy Donahue

General
Complete name : Grandview.U.S.A.1984.1080p.BluRay.x264-HeMi.mkv
Unique ID : 339389877452305742459091125867622046849 (0xFF541CDF32AF427920C394A47E821C81)
Format : Matroska
Format version : Version 4
File size : 7.56 GiB
Duration : 1 h 37 min
Overall bit rate : 11.1 Mb/s
Movie name : Grandview, U.S.A. [1984] 1080p BluRay
Encoded date : UTC 2019-12-09 19:39:49
Writing application : mkvmerge v39.0.0 ('In The Waiting Line') 64-bit
Writing library : libebml v1.3.9 + libmatroska v1.5.2

Video
ID : 1
Format : AVC
Format/Info : Advanced Video Codec: Format profile : High@L4.1
Format settings : CABAC / 4 Ref Frames
Format settings, CABAC : Yes
Format settings, Reference frames : 4 frames
Codec ID : V_MPEG4/ISO/AVC
Duration : 1 h 37 min
Bit rate : 10.5 Mb/s
Width : 1 920 pixels
Height : 1 080 pixels
Display aspect ratio : 16:9
Frame rate mode : Constant
Frame rate : 23.976 (24000/1001) FPS
Color space : YUV
Chroma subsampling : 4:2:0
Bit depth : 8 bits
Scan type : Progressive
Bits/(Pixel*Frame) : 0.210
Stream size : 7.12 GiB (94%)
Writing library : x264 core 157 r2935 545de2f
Encoding settings : cabac=1 / ref=4 / deblock=1:-3:-3 / analyse=0x3:0x133 / me=umh / subme=10 / psy=1 / psy_rd=1.00:0.00 / mixed_ref=1 / me_range=32 / chroma_me=1 / trellis=2 / 8x8dct=1 / cqm=0 / deadzone=21,11 / fast_pskip=0 / chroma_qp_offset=-2 / threads=34 / lookahead_threads=8 / sliced_threads=0 / nr=0 / decimate=0 / interlaced=0 / bluray_compat=0 / constrained_intra=0 / bframes=16 / b_pyramid=2 / b_adapt=2 / b_bias=0 / direct=3 / weightb=1 / open_gop=0 / weightp=2 / keyint=240 / keyint_min=24 / scenecut=40 / intra_refresh=0 / rc_lookahead=60 / rc=crf / mbtree=0 / crf=22.8 / qcomp=0.60 / qpmin=0 / qpmax=69 / qpstep=4 / vbv_maxrate=62500 / vbv_bufsize=78125 / crf_max=0.0 / nal_hrd=none / filler=0 / ip_ratio=1.40 / pb_ratio=1.30 / aq=2:1.00
Default : Yes
Forced : No
Color range : Limited
Color primaries : BT.709
Transfer characteristics : BT.709
Matrix coefficients : BT.709

Audio
ID : 2
Format : AC-3
Format/Info : Audio Coding 3
Commercial name : Dolby Digital
Codec ID : A_AC3
Duration : 1 h 37 min
Bit rate mode : Constant
Bit rate : 640 kb/s
Channel(s) : 6 channels
Channel layout : L R C LFE Ls Rs
Sampling rate : 48.0 kHz
Frame rate : 31.250 FPS (1536 SPF)
Compression mode : Lossy
Stream size : 446 MiB (6%)
Language : English
Service kind : Complete Main
Default : Yes
Forced : No

Text
ID : 3
Format : UTF-8
Codec ID : S_TEXT/UTF8
Codec ID/Info : UTF-8 Plain Text
Duration : 1 h 31 min
Bit rate : 66 b/s
Frame rate : 0.256 FPS
Count of elements : 1404
Stream size : 44.5 KiB (0%)
Language : English
Default : No
Forced : No

Menu
00:00:00.000 : :Chapter 1
00:10:00.058 : :Chapter 2
00:20:00.032 : :Chapter 3
00:30:00.007 : :Chapter 4
00:40:00.023 : :Chapter 5
00:50:00.080 : :Chapter 6
01:00:00.097 : :Chapter 7
01:10:00.071 : :Chapter 8
01:20:00.004 : :Chapter 9
01:30:00.103 : :Chapter 10

Files