Jack Reacher Never Go Back 2016 1080p UHD BluRay DDP 7 1 DoVi HDR10 x265-SM737

Jack Reacher must uncover the truth behind a major government conspiracy in order to clear his name. On the run as a fugitive from the law, Reacher uncovers a potential secret from his past that could change his life forever.

Year: 2016
Duration: 118 min
Release date: Friday 21st October 2016
Genre: Action, Adventure, Crime, Mystery, Thriller

Rating

6.1/10
(96943 Votes)

0

Your Rating

Stars:
Tom Cruise, Cobie Smulders, Aldis Hodge, Robert Knepper

https://www.imdb.com/title/tt3393786/

General
Unique ID : 151554194271863395540456387543493989801 (0x720446AE222C85862F08A474F0AF55A9)
Complete name : Jack.Reacher.Never.Go.Back.2016.1080p.UHD.BluRay.DDP.7.1.DoVi.HDR10.x265-SM737.mkv
Format : Matroska
Format version : Version 4
File size : 5.69 GiB
Duration : 1 h 58 min
Overall bit rate : 6 900 kb/s
Frame rate : 23.976 FPS
Encoded date : 2024-06-25 18:18:46 UTC
Writing application : mkvmerge v82.0 ('I'm The President') 64-bit
Writing library : libebml v1.4.5 + libmatroska v1.7.1 / Lavf61.1.100

Video
ID : 1
Format : HEVC
Format/Info : High Efficiency Video Coding
Format profile : Main 10@L5.2@High
HDR format : Dolby Vision, Version 1.0, dvhe.08.10, BL+RPU, HDR10 compatible / SMPTE ST 2086, HDR10 compatible / SMPTE ST 2086, HDR10 compatible
Codec ID : V_MPEGH/ISO/HEVC
Duration : 1 h 58 min
Bit rate : 5 033 kb/s
Width : 1 920 pixels
Height : 802 pixels
Display aspect ratio : 2.40:1
Frame rate mode : Constant
Frame rate : 23.976 (24000/1001) FPS
Color space : YUV
Chroma subsampling : 4:2:0 (Type 2)
Bit depth : 10 bits
Bits/(Pixel*Frame) : 0.136
Stream size : 4.15 GiB (73%)
Writing library : x265 3.6+1-aa7f602f7:[Windows][GCC 13.2.0][64 bit] 10bit
Encoding settings : cpuid=1111039 / frame-threads=4 / numa-pools=16 / wpp / no-pmode / no-pme / no-psnr / no-ssim / log-level=2 / input-csp=1 / input-res=1920x802 / interlace=0 / total-frames=0 / level-idc=52 / high-tier=1 / uhd-bd=0 / ref=6 / no-allow-non-conformance / repeat-headers / annexb / aud / no-eob / no-eos / hrd / info / hash=0 / temporal-layers=0 / open-gop / min-keyint=24 / keyint=240 / gop-lookahead=0 / bframes=8 / b-adapt=2 / b-pyramid / bframe-bias=0 / rc-lookahead=40 / lookahead-slices=4 / scenecut=40 / no-hist-scenecut / radl=0 / no-splice / no-intra-refresh / ctu=64 / min-cu-size=8 / rect / no-amp / max-tu-size=32 / tu-inter-depth=1 / tu-intra-depth=1 / limit-tu=0 / rdoq-level=2 / dynamic-rd=0.00 / no-ssim-rd / signhide / no-tskip / nr-intra=0 / nr-inter=0 / no-constrained-intra / strong-intra-smoothing / max-merge=3 / limit-refs=3 / limit-modes / me=3 / subme=3 / merange=57 / temporal-mvp / no-frame-dup / no-hme / no-weightp / no-weightb / no-analyze-src-pics / deblock=-3:-3 / no-sao / no-sao-non-deblock / rd=4 / selective-sao=0 / no-early-skip / rskip / no-fast-intra / no-tskip-fast / no-cu-lossless / no-b-intra / no-splitrd-skip / rdpenalty=0 / psy-rd=2.00 / psy-rdoq=1.00 / no-rd-refine / no-lossless / cbqpoffs=0 / crqpoffs=0 / rc=abr / bitrate=5000 / qcomp=0.60 / qpstep=4 / stats-write=0 / stats-read=2 / cplxblur=20.0 / qblur=0.5 / vbv-maxrate=240000 / vbv-bufsize=240000 / vbv-init=0.9 / min-vbv-fullness=50.0 / max-vbv-fullness=80.0 / ipratio=1.40 / pbratio=1.30 / aq-mode=4 / aq-strength=1.00 / cutree / zone-count=0 / no-strict-cbr / qg-size=32 / no-rc-grain / qpmax=69 / qpmin=0 / no-const-vbv / sar=1 / overscan=0 / videoformat=5 / range=0 / colorprim=9 / transfer=16 / colormatrix=9 / chromaloc=1 / chromaloc-top=2 / chromaloc-bottom=2 / display-window=0 / master-display=G(13250,34500)B(7500,3000)R(34000,16000)WP(15635,16450)L(10000000,50) / cll=0,0 / min-luma=0 / max-luma=1023 / log2-max-poc-lsb=8 / vui-timing-info / vui-hrd-info / slices=1 / no-opt-qp-pps / no-opt-ref-list-length-pps / no-multi-pass-opt-rps / scenecut-bias=0.05 / no-opt-cu-delta-qp / no-aq-motion / hdr10 / hdr10-opt / no-dhdr10-opt / no-idr-recovery-sei / analysis-reuse-level=0 / analysis-save-reuse-level=0 / analysis-load-reuse-level=0 / scale-factor=0 / refine-intra=0 / refine-inter=0 / refine-mv=1 / refine-ctu-distortion=0 / no-limit-sao / ctu-info=0 / no-lowpass-dct / refine-analysis-type=0 / copy-pic=1 / max-ausize-factor=1.0 / no-dynamic-refine / no-single-sei / no-hevc-aq / no-svt / no-field / qp-adaptation-range=1.00 / scenecut-aware-qp=0conformance-window-offsets / right=0 / bottom=0 / decoder-max-rate=0 / no-vbv-live-multi-pass / no-mcstf / no-sbrc
Default : Yes
Forced : No
Color range : Limited
Color primaries : BT.2020
Transfer characteristics : PQ
Matrix coefficients : BT.2020 non-constant
Mastering display color primaries : Display P3
Mastering display luminance : min: 0.0050 cd/m2, max: 1000 cd/m2

Audio
ID : 2
Format : E-AC-3
Format/Info : Enhanced AC-3
Commercial name : Dolby Digital Plus
Format profile : Blu-ray Disc
Format settings : Dolby Surround EX
Codec ID : A_EAC3
Duration : 1 h 58 min
Bit rate mode : Constant
Bit rate : 1 536 kb/s
Channel(s) : 8 channels
Channel layout : L R C LFE Ls Rs Lb Rb
Sampling rate : 48.0 kHz
Frame rate : 31.250 FPS (1536 SPF)
Compression mode : Lossy
Stream size : 1.27 GiB (22%)
Title : Surround
Language : English
Service kind : Complete Main
Default : Yes
Forced : No

Text #1
ID : 3
Format : PGS
Muxing mode : zlib
Codec ID : S_HDMV/PGS
Codec ID/Info : Picture based subtitle format used on BDs/HD-DVDs
Duration : 1 h 52 min
Bit rate : 33.9 kb/s
Frame rate : 0.454 FPS
Count of elements : 3060
Stream size : 27.2 MiB (0%)
Title : SDH
Language : English
Default : Yes
Forced : No

Text #2
ID : 4
Format : PGS
Muxing mode : zlib
Codec ID : S_HDMV/PGS
Codec ID/Info : Picture based subtitle format used on BDs/HD-DVDs
Duration : 1 h 51 min
Bit rate : 30.7 kb/s
Frame rate : 0.421 FPS
Count of elements : 2824
Stream size : 24.5 MiB (0%)
Language : English
Default : No
Forced : No

Text #3
ID : 5
Format : PGS
Muxing mode : zlib
Codec ID : S_HDMV/PGS
Codec ID/Info : Picture based subtitle format used on BDs/HD-DVDs
Duration : 1 h 57 min
Bit rate : 26.7 kb/s
Frame rate : 0.362 FPS
Count of elements : 2548
Stream size : 22.4 MiB (0%)
Language : Czech
Default : No
Forced : No

Text #4
ID : 6
Format : PGS
Muxing mode : zlib
Codec ID : S_HDMV/PGS
Codec ID/Info : Picture based subtitle format used on BDs/HD-DVDs
Duration : 1 h 57 min
Bit rate : 25.5 kb/s
Frame rate : 0.362 FPS
Count of elements : 2546
Stream size : 21.3 MiB (0%)
Language : Slovak
Default : No
Forced : No

Text #5
ID : 7
Format : PGS
Muxing mode : zlib
Codec ID : S_HDMV/PGS
Codec ID/Info : Picture based subtitle format used on BDs/HD-DVDs
Duration : 1 h 57 min
Bit rate : 25.8 kb/s
Frame rate : 0.280 FPS
Count of elements : 1966
Stream size : 21.6 MiB (0%)
Language : Danish
Default : No
Forced : No

Text #6
ID : 8
Format : PGS
Muxing mode : zlib
Codec ID : S_HDMV/PGS
Codec ID/Info : Picture based subtitle format used on BDs/HD-DVDs
Duration : 1 h 57 min
Bit rate : 30.7 kb/s
Frame rate : 0.406 FPS
Count of elements : 2852
Stream size : 25.8 MiB (0%)
Language : German
Default : No
Forced : No

Text #7
ID : 9
Format : PGS
Muxing mode : zlib
Codec ID : S_HDMV/PGS
Codec ID/Info : Picture based subtitle format used on BDs/HD-DVDs
Duration : 1 h 57 min
Bit rate : 28.5 kb/s
Frame rate : 0.369 FPS
Count of elements : 2598
Stream size : 23.9 MiB (0%)
Title : Castilian
Language : Spanish
Default : No
Forced : No

Text #8
ID : 10
Format : PGS
Muxing mode : zlib
Codec ID : S_HDMV/PGS
Codec ID/Info : Picture based subtitle format used on BDs/HD-DVDs
Duration : 1 h 57 min
Bit rate : 26.6 kb/s
Frame rate : 0.404 FPS
Count of elements : 2844
Stream size : 22.3 MiB (0%)
Title : Parisian
Language : French
Default : No
Forced : No

Text #9
ID : 11
Format : PGS
Muxing mode : zlib
Codec ID : S_HDMV/PGS
Codec ID/Info : Picture based subtitle format used on BDs/HD-DVDs
Duration : 1 h 57 min
Bit rate : 27.0 kb/s
Frame rate : 0.356 FPS
Count of elements : 2500
Stream size : 22.6 MiB (0%)
Language : Italian
Default : No
Forced : No

Text #10
ID : 12
Format : PGS
Muxing mode : zlib
Codec ID : S_HDMV/PGS
Codec ID/Info : Picture based subtitle format used on BDs/HD-DVDs
Duration : 1 h 52 min
Bit rate : 19.5 kb/s
Frame rate : 0.381 FPS
Count of elements : 2563
Stream size : 15.7 MiB (0%)
Language : Japanese
Default : No
Forced : No

Text #11
ID : 13
Format : PGS
Muxing mode : zlib
Codec ID : S_HDMV/PGS
Codec ID/Info : Picture based subtitle format used on BDs/HD-DVDs
Duration : 1 h 57 min
Bit rate : 26.0 kb/s
Frame rate : 0.306 FPS
Count of elements : 2150
Stream size : 21.8 MiB (0%)
Language : Dutch
Default : No
Forced : No

Text #12
ID : 14
Format : PGS
Muxing mode : zlib
Codec ID : S_HDMV/PGS
Codec ID/Info : Picture based subtitle format used on BDs/HD-DVDs
Duration : 1 h 57 min
Bit rate : 26.2 kb/s
Frame rate : 0.363 FPS
Count of elements : 2552
Stream size : 21.9 MiB (0%)
Language : Norwegian
Default : No
Forced : No

Text #13
ID : 15
Format : PGS
Muxing mode : zlib
Codec ID : S_HDMV/PGS
Codec ID/Info : Picture based subtitle format used on BDs/HD-DVDs
Duration : 1 h 57 min
Bit rate : 27.4 kb/s
Frame rate : 0.406 FPS
Count of elements : 2856
Stream size : 23.0 MiB (0%)
Language : Finnish
Default : No
Forced : No

Text #14
ID : 16
Format : PGS
Muxing mode : zlib
Codec ID : S_HDMV/PGS
Codec ID/Info : Picture based subtitle format used on BDs/HD-DVDs
Duration : 1 h 57 min
Bit rate : 26.4 kb/s
Frame rate : 0.360 FPS
Count of elements : 2534
Stream size : 22.1 MiB (0%)
Language : Swedish
Default : No
Forced : No

Text #15
ID : 17
Format : PGS
Muxing mode : zlib
Codec ID : S_HDMV/PGS
Codec ID/Info : Picture based subtitle format used on BDs/HD-DVDs
Duration : 1 h 52 min
Bit rate : 30.2 kb/s
Frame rate : 0.438 FPS
Count of elements : 2950
Stream size : 24.3 MiB (0%)
Title : Canadian
Language : French
Default : No
Forced : No

Text #16
ID : 18
Format : PGS
Muxing mode : zlib
Codec ID : S_HDMV/PGS
Codec ID/Info : Picture based subtitle format used on BDs/HD-DVDs
Duration : 1 h 52 min
Bit rate : 28.3 kb/s
Frame rate : 0.378 FPS
Count of elements : 2546
Stream size : 22.7 MiB (0%)
Title : Latin American
Language : Spanish
Default : No
Forced : No

Text #17
ID : 19
Format : PGS
Muxing mode : zlib
Codec ID : S_HDMV/PGS
Codec ID/Info : Picture based subtitle format used on BDs/HD-DVDs
Duration : 1 h 52 min
Bit rate : 25.0 kb/s
Frame rate : 0.378 FPS
Count of elements : 2546
Stream size : 20.1 MiB (0%)
Title : Brazilian
Language : Portuguese
Default : No
Forced : No

Text #18
ID : 20
Format : PGS
Muxing mode : zlib
Codec ID : S_HDMV/PGS
Codec ID/Info : Picture based subtitle format used on BDs/HD-DVDs
Duration : 1 h 57 min
Bit rate : 30.5 kb/s
Frame rate : 0.379 FPS
Count of elements : 2666
Stream size : 25.6 MiB (0%)
Language : Greek
Default : No
Forced : No

Text #19
ID : 21
Format : PGS
Muxing mode : zlib
Codec ID : S_HDMV/PGS
Codec ID/Info : Picture based subtitle format used on BDs/HD-DVDs
Duration : 1 h 57 min
Bit rate : 28.5 kb/s
Frame rate : 0.405 FPS
Count of elements : 2850
Stream size : 23.9 MiB (0%)
Language : Estonian
Default : No
Forced : No

Text #20
ID : 22
Format : PGS
Muxing mode : zlib
Codec ID : S_HDMV/PGS
Codec ID/Info : Picture based subtitle format used on BDs/HD-DVDs
Duration : 1 h 57 min
Bit rate : 19.2 kb/s
Frame rate : 0.363 FPS
Count of elements : 2556
Stream size : 16.1 MiB (0%)
Language : Hebrew
Default : No
Forced : No

Text #21
ID : 23
Format : PGS
Muxing mode : zlib
Codec ID : S_HDMV/PGS
Codec ID/Info : Picture based subtitle format used on BDs/HD-DVDs
Duration : 1 h 57 min
Bit rate : 24.2 kb/s
Frame rate : 0.406 FPS
Count of elements : 2856
Stream size : 20.3 MiB (0%)
Language : Hindi
Default : No
Forced : No

Text #22
ID : 24
Format : PGS
Muxing mode : zlib
Codec ID : S_HDMV/PGS
Codec ID/Info : Picture based subtitle format used on BDs/HD-DVDs
Duration : 1 h 57 min
Bit rate : 28.0 kb/s
Frame rate : 0.361 FPS
Count of elements : 2536
Stream size : 23.5 MiB (0%)
Language : Icelandic
Default : No
Forced : No

Text #23
ID : 25
Format : PGS
Muxing mode : zlib
Codec ID : S_HDMV/PGS
Codec ID/Info : Picture based subtitle format used on BDs/HD-DVDs
Duration : 1 h 57 min
Bit rate : 16.2 kb/s
Frame rate : 0.363 FPS
Count of elements : 2554
Stream size : 13.6 MiB (0%)
Language : Korean
Default : No
Forced : No

Text #24
ID : 26
Format : PGS
Muxing mode : zlib
Codec ID : S_HDMV/PGS
Codec ID/Info : Picture based subtitle format used on BDs/HD-DVDs
Duration : 1 h 57 min
Bit rate : 26.1 kb/s
Frame rate : 0.406 FPS
Count of elements : 2858
Stream size : 21.9 MiB (0%)
Language : Latvian
Default : No
Forced : No

Text #25
ID : 27
Format : PGS
Muxing mode : zlib
Codec ID : S_HDMV/PGS
Codec ID/Info : Picture based subtitle format used on BDs/HD-DVDs
Duration : 1 h 57 min
Bit rate : 26.8 kb/s
Frame rate : 0.364 FPS
Count of elements : 2558
Stream size : 22.5 MiB (0%)
Language : Lithuanian
Default : No
Forced : No

Text #26
ID : 28
Format : PGS
Muxing mode : zlib
Codec ID : S_HDMV/PGS
Codec ID/Info : Picture based subtitle format used on BDs/HD-DVDs
Duration : 1 h 57 min
Bit rate : 28.4 kb/s
Frame rate : 0.405 FPS
Count of elements : 2850
Stream size : 23.8 MiB (0%)
Language : Hungarian
Default : No
Forced : No

Text #27
ID : 29
Format : PGS
Muxing mode : zlib
Codec ID : S_HDMV/PGS
Codec ID/Info : Picture based subtitle format used on BDs/HD-DVDs
Duration : 1 h 57 min
Bit rate : 24.9 kb/s
Frame rate : 0.351 FPS
Count of elements : 2468
Stream size : 20.9 MiB (0%)
Language : Polish
Default : No
Forced : No

Text #28
ID : 30
Format : PGS
Muxing mode : zlib
Codec ID : S_HDMV/PGS
Codec ID/Info : Picture based subtitle format used on BDs/HD-DVDs
Duration : 1 h 57 min
Bit rate : 28.8 kb/s
Frame rate : 0.368 FPS
Count of elements : 2586
Stream size : 24.1 MiB (0%)
Title : Iberian
Language : Portuguese
Default : No
Forced : No

Text #29
ID : 31
Format : PGS
Muxing mode : zlib
Codec ID : S_HDMV/PGS
Codec ID/Info : Picture based subtitle format used on BDs/HD-DVDs
Duration : 1 h 57 min
Bit rate : 27.7 kb/s
Frame rate : 0.364 FPS
Count of elements : 2558
Stream size : 23.2 MiB (0%)
Language : Russian
Default : No
Forced : No

Text #30
ID : 32
Format : PGS
Muxing mode : zlib
Codec ID : S_HDMV/PGS
Codec ID/Info : Picture based subtitle format used on BDs/HD-DVDs
Duration : 1 h 57 min
Bit rate : 24.5 kb/s
Frame rate : 0.363 FPS
Count of elements : 2556
Stream size : 20.5 MiB (0%)
Language : Romanian
Default : No
Forced : No

Text #31
ID : 33
Format : PGS
Muxing mode : zlib
Codec ID : S_HDMV/PGS
Codec ID/Info : Picture based subtitle format used on BDs/HD-DVDs
Duration : 1 h 57 min
Bit rate : 21.6 kb/s
Frame rate : 0.364 FPS
Count of elements : 2562
Stream size : 18.1 MiB (0%)
Title : Traditional
Language : Chinese
Default : No
Forced : No

Text #32
ID : 34
Format : PGS
Muxing mode : zlib
Codec ID : S_HDMV/PGS
Codec ID/Info : Picture based subtitle format used on BDs/HD-DVDs
Duration : 1 h 57 min
Bit rate : 24.4 kb/s
Frame rate : 0.363 FPS
Count of elements : 2568
Stream size : 20.6 MiB (0%)
Title : Simplified
Language : Chinese
Default : No
Forced : No

Text #33
ID : 35
Format : PGS
Muxing mode : zlib
Codec ID : S_HDMV/PGS
Codec ID/Info : Picture based subtitle format used on BDs/HD-DVDs
Duration : 1 h 57 min
Bit rate : 22.2 kb/s
Frame rate : 0.363 FPS
Count of elements : 2554
Stream size : 18.6 MiB (0%)
Language : Thai
Default : No
Forced : No

Text #34
ID : 36
Format : PGS
Muxing mode : zlib
Codec ID : S_HDMV/PGS
Codec ID/Info : Picture based subtitle format used on BDs/HD-DVDs
Duration : 1 h 57 min
Bit rate : 28.9 kb/s
Frame rate : 0.362 FPS
Count of elements : 2548
Stream size : 24.2 MiB (0%)
Language : Turkish
Default : No
Forced : No

Text #35
ID : 37
Format : PGS
Muxing mode : zlib
Codec ID : S_HDMV/PGS
Codec ID/Info : Picture based subtitle format used on BDs/HD-DVDs
Duration : 1 h 57 min
Bit rate : 28.4 kb/s
Frame rate : 0.407 FPS
Count of elements : 2860
Stream size : 23.8 MiB (0%)
Language : Ukrainian
Default : No
Forced : No

Text #36
ID : 38
Format : PGS
Muxing mode : zlib
Codec ID : S_HDMV/PGS
Codec ID/Info : Picture based subtitle format used on BDs/HD-DVDs
Duration : 1 h 57 min
Bit rate : 15.2 kb/s
Frame rate : 0.364 FPS
Count of elements : 2560
Stream size : 12.7 MiB (0%)
Language : Arabic
Default : No
Forced : No

Text #37
ID : 39
Format : PGS
Muxing mode : zlib
Codec ID : S_HDMV/PGS
Codec ID/Info : Picture based subtitle format used on BDs/HD-DVDs
Duration : 1 h 57 min
Bit rate : 32.9 kb/s
Frame rate : 0.405 FPS
Count of elements : 2850
Stream size : 27.5 MiB (0%)
Language : Malay
Default : No
Forced : No

Text #38
ID : 40
Format : PGS
Muxing mode : zlib
Codec ID : S_HDMV/PGS
Codec ID/Info : Picture based subtitle format used on BDs/HD-DVDs
Duration : 1 h 57 min
Bit rate : 19.7 kb/s
Frame rate : 0.363 FPS
Count of elements : 2554
Stream size : 16.5 MiB (0%)
Title : Cantonese
Language : Chinese
Default : No
Forced : No

Text #39
ID : 41
Format : UTF-8
Codec ID : S_TEXT/UTF8
Codec ID/Info : UTF-8 Plain Text
Duration : 1 h 52 min
Bit rate : 94 b/s
Frame rate : 0.190 FPS
Count of elements : 1280
Stream size : 77.3 KiB (0%)
Language : Arabic
Default : No
Forced : No

Text #40
ID : 42
Format : UTF-8
Codec ID : S_TEXT/UTF8
Codec ID/Info : UTF-8 Plain Text
Duration : 1 h 52 min
Bit rate : 68 b/s
Frame rate : 0.189 FPS
Count of elements : 1271
Stream size : 56.6 KiB (0%)
Language : Bulgarian
Default : No
Forced : No

Text #41
ID : 43
Format : UTF-8
Codec ID : S_TEXT/UTF8
Codec ID/Info : UTF-8 Plain Text
Duration : 1 h 52 min
Bit rate : 44 b/s
Frame rate : 0.190 FPS
Count of elements : 1284
Stream size : 36.4 KiB (0%)
Language : Chinese
Default : No
Forced : No

Text #42
ID : 44
Format : UTF-8
Codec ID : S_TEXT/UTF8
Codec ID/Info : UTF-8 Plain Text
Duration : 1 h 52 min
Bit rate : 38 b/s
Frame rate : 0.190 FPS
Count of elements : 1280
Stream size : 31.5 KiB (0%)
Language : Chinese
Default : No
Forced : No

Text #43
ID : 45
Format : UTF-8
Codec ID : S_TEXT/UTF8
Codec ID/Info : UTF-8 Plain Text
Duration : 1 h 52 min
Bit rate : 48 b/s
Frame rate : 0.189 FPS
Count of elements : 1274
Stream size : 39.5 KiB (0%)
Language : Czech
Default : No
Forced : No

Text #44
ID : 46
Format : UTF-8
Codec ID : S_TEXT/UTF8
Codec ID/Info : UTF-8 Plain Text
Duration : 1 h 52 min
Bit rate : 46 b/s
Frame rate : 0.146 FPS
Count of elements : 982
Stream size : 38.2 KiB (0%)
Language : Danish
Default : No
Forced : No

Text #45
ID : 47
Format : UTF-8
Codec ID : S_TEXT/UTF8
Codec ID/Info : UTF-8 Plain Text
Duration : 1 h 52 min
Bit rate : 86 b/s
Frame rate : 0.198 FPS
Count of elements : 1332
Stream size : 71.3 KiB (0%)
Language : Greek
Default : No
Forced : No

Text #46
ID : 48
Format : UTF-8
Codec ID : S_TEXT/UTF8
Codec ID/Info : UTF-8 Plain Text
Duration : 1 h 52 min
Bit rate : 53 b/s
Frame rate : 0.227 FPS
Count of elements : 1530
Stream size : 43.9 KiB (0%)
Language : English
Default : No
Forced : No

Text #47
ID : 49
Format : UTF-8
Codec ID : S_TEXT/UTF8
Codec ID/Info : UTF-8 Plain Text
Duration : 1 h 51 min
Bit rate : 49 b/s
Frame rate : 0.211 FPS
Count of elements : 1416
Stream size : 40.5 KiB (0%)
Language : English
Default : No
Forced : No

Text #48
ID : 50
Format : UTF-8
Codec ID : S_TEXT/UTF8
Codec ID/Info : UTF-8 Plain Text
Duration : 1 h 52 min
Bit rate : 49 b/s
Frame rate : 0.193 FPS
Count of elements : 1297
Stream size : 40.7 KiB (0%)
Language : Spanish
Default : No
Forced : No

Text #49
ID : 51
Format : UTF-8
Codec ID : S_TEXT/UTF8
Codec ID/Info : UTF-8 Plain Text
Duration : 1 h 52 min
Bit rate : 46 b/s
Frame rate : 0.212 FPS
Count of elements : 1428
Stream size : 38.4 KiB (0%)
Language : Finnish
Default : No
Forced : No

Text #50
ID : 52
Format : UTF-8
Codec ID : S_TEXT/UTF8
Codec ID/Info : UTF-8 Plain Text
Duration : 1 h 52 min
Bit rate : 47 b/s
Frame rate : 0.211 FPS
Count of elements : 1423
Stream size : 39.4 KiB (0%)
Language : French
Default : No
Forced : No

Text #51
ID : 53
Format : UTF-8
Codec ID : S_TEXT/UTF8
Codec ID/Info : UTF-8 Plain Text
Duration : 1 h 52 min
Bit rate : 91 b/s
Frame rate : 0.190 FPS
Count of elements : 1278
Stream size : 75.3 KiB (0%)
Language : Hebrew
Default : No
Forced : No

Text #52
ID : 54
Format : UTF-8
Codec ID : S_TEXT/UTF8
Codec ID/Info : UTF-8 Plain Text
Duration : 1 h 52 min
Bit rate : 48 b/s
Frame rate : 0.211 FPS
Count of elements : 1424
Stream size : 40.0 KiB (0%)
Language : Hungarian
Default : No
Forced : No

Text #53
ID : 55
Format : UTF-8
Codec ID : S_TEXT/UTF8
Codec ID/Info : UTF-8 Plain Text
Duration : 1 h 52 min
Bit rate : 44 b/s
Frame rate : 0.189 FPS
Count of elements : 1270
Stream size : 36.7 KiB (0%)
Language : Indonesian
Default : No
Forced : No

Text #54
ID : 56
Format : UTF-8
Codec ID : S_TEXT/UTF8
Codec ID/Info : UTF-8 Plain Text
Duration : 1 h 52 min
Bit rate : 44 b/s
Frame rate : 0.189 FPS
Count of elements : 1276
Stream size : 36.9 KiB (0%)
Language : Korean
Default : No
Forced : No

Text #55
ID : 57
Format : UTF-8
Codec ID : S_TEXT/UTF8
Codec ID/Info : UTF-8 Plain Text
Duration : 1 h 52 min
Bit rate : 47 b/s
Frame rate : 0.190 FPS
Count of elements : 1278
Stream size : 39.3 KiB (0%)
Language : Lithuanian
Default : No
Forced : No

Text #56
ID : 58
Format : UTF-8
Codec ID : S_TEXT/UTF8
Codec ID/Info : UTF-8 Plain Text
Duration : 1 h 52 min
Bit rate : 47 b/s
Frame rate : 0.212 FPS
Count of elements : 1430
Stream size : 38.9 KiB (0%)
Language : Latvian
Default : No
Forced : No

Text #57
ID : 59
Format : UTF-8
Codec ID : S_TEXT/UTF8
Codec ID/Info : UTF-8 Plain Text
Duration : 1 h 52 min
Bit rate : 46 b/s
Frame rate : 0.189 FPS
Count of elements : 1274
Stream size : 38.0 KiB (0%)
Language : Norwegian
Default : No
Forced : No

Text #58
ID : 60
Format : UTF-8
Codec ID : S_TEXT/UTF8
Codec ID/Info : UTF-8 Plain Text
Duration : 1 h 52 min
Bit rate : 43 b/s
Frame rate : 0.183 FPS
Count of elements : 1233
Stream size : 35.6 KiB (0%)
Language : Polish
Default : No
Forced : No

Text #59
ID : 61
Format : UTF-8
Codec ID : S_TEXT/UTF8
Codec ID/Info : UTF-8 Plain Text
Duration : 1 h 52 min
Bit rate : 49 b/s
Frame rate : 0.192 FPS
Count of elements : 1293
Stream size : 41.0 KiB (0%)
Language : Portuguese
Default : No
Forced : No

Text #60
ID : 62
Format : UTF-8
Codec ID : S_TEXT/UTF8
Codec ID/Info : UTF-8 Plain Text
Duration : 1 h 52 min
Bit rate : 79 b/s
Frame rate : 0.190 FPS
Count of elements : 1277
Stream size : 65.5 KiB (0%)
Language : Russian
Default : No
Forced : No

Text #61
ID : 63
Format : UTF-8
Codec ID : S_TEXT/UTF8
Codec ID/Info : UTF-8 Plain Text
Duration : 1 h 52 min
Bit rate : 45 b/s
Frame rate : 0.189 FPS
Count of elements : 1273
Stream size : 37.2 KiB (0%)
Language : Slovak
Default : No
Forced : No

Text #62
ID : 64
Format : UTF-8
Codec ID : S_TEXT/UTF8
Codec ID/Info : UTF-8 Plain Text
Duration : 1 h 52 min
Bit rate : 40 b/s
Frame rate : 0.119 FPS
Count of elements : 802
Stream size : 33.0 KiB (0%)
Language : Slovenian
Default : No
Forced : No

Text #63
ID : 65
Format : UTF-8
Codec ID : S_TEXT/UTF8
Codec ID/Info : UTF-8 Plain Text
Duration : 1 h 52 min
Bit rate : 47 b/s
Frame rate : 0.188 FPS
Count of elements : 1266
Stream size : 39.2 KiB (0%)
Language : Swedish
Default : No
Forced : No

Text #64
ID : 66
Format : UTF-8
Codec ID : S_TEXT/UTF8
Codec ID/Info : UTF-8 Plain Text
Duration : 1 h 52 min
Bit rate : 109 b/s
Frame rate : 0.190 FPS
Count of elements : 1277
Stream size : 90.3 KiB (0%)
Language : Thai
Default : No
Forced : No

Text #65
ID : 67
Format : UTF-8
Codec ID : S_TEXT/UTF8
Codec ID/Info : UTF-8 Plain Text
Duration : 1 h 52 min
Bit rate : 51 b/s
Frame rate : 0.189 FPS
Count of elements : 1273
Stream size : 41.9 KiB (0%)
Language : Turkish
Default : No
Forced : No

Text #66
ID : 68
Format : UTF-8
Codec ID : S_TEXT/UTF8
Codec ID/Info : UTF-8 Plain Text
Duration : 1 h 52 min
Bit rate : 64 b/s
Frame rate : 0.190 FPS
Count of elements : 1280
Stream size : 53.3 KiB (0%)
Language : Vietnamese
Default : No
Forced : No

Text #67
ID : 69
Format : UTF-8
Codec ID : S_TEXT/UTF8
Codec ID/Info : UTF-8 Plain Text
Duration : 1 h 52 min
Bit rate : 35 b/s
Frame rate : 0.190 FPS
Count of elements : 1277
Stream size : 29.1 KiB (0%)
Language : Chinese
Default : No
Forced : No

Menu
00:00:00.000 : Chapter 1
00:07:00.629 : Chapter 2
00:15:19.877 : Chapter 3
00:20:33.858 : Chapter 4
00:29:04.576 : Chapter 5
00:34:35.740 : Chapter 6
00:42:40.141 : Chapter 7
00:49:28.007 : Chapter 8
00:58:44.563 : Chapter 9
01:03:10.161 : Chapter 10
01:09:35.755 : Chapter 11
01:15:05.334 : Chapter 12
01:21:59.665 : Chapter 13
01:27:07.222 : Chapter 14
01:34:14.065 : Chapter 15
01:46:44.857 : Chapter 16
01:53:30.846 : Chapter 17

Jack.Reacher.Never.Go.Back.2016.Hybrid.2160p.Remux.HEVC.DoVi.TrueHD.7.1-3L

Files