Dungeons & Dragons - Honor Among Thieves (2023) (1080p BDRip x265 10bit EAC3 7 1 English - JBENT)[TAoE]

Plot undisclosed

Year: 2023
Release date: Tuesday 28th February 2023
Genre: Adventure, Fantasy

Rating

7.3/10
(211403 Votes)

0

Your Rating

Stars:
Michelle Rodriguez, Chris Pine, Regé-Jean Page, Hugh Grant, Sophia Lillis, Chloe Coleman, Justice Smith, Daisy Head

Dungeons & Dragons: Honor Among Thieves (2023)

Quantization Parameter

Avg QP : 22.12
frame I: 1948, Avg QP:16.92 kb/s: 27778.95
frame P: 42140, Avg QP:18.45 kb/s: 11841.89
frame B: 148876, Avg QP:23.23 kb/s: 2149.85

Encode Media Information

General
Unique ID : 106075086903392864428187324980059803020 (0x4FCD51913754273495510B3345358D8C)
Complete name : Dungeons & Dragons - Honor Among Thieves (2023) (1080p BDRip x265 10bit EAC3 7.1 English - JBENT)[TAoE].mkv
Format : Matroska
Format version : Version 4
File size : 5.39 GiB
Duration : 2 h 14 min
Overall bit rate : 5 750 kb/s
Movie name : Dungeons and Dragons - Honor Among Thieves
Encoded date : UTC 2024-07-05 17:08:34
Writing application : mkvmerge v81.0 ('Milliontown') 64-bit
Writing library : libebml v1.4.4 + libmatroska v1.7.1
Cover : Yes
Attachments : cover.jpg

Video
ID : 1
Format : HEVC
Format/Info : High Efficiency Video Coding
Format profile : Main 10@L4@Main
Codec ID : V_MPEGH/ISO/HEVC
Duration : 2 h 14 min
Bit rate : 4 526 kb/s
Width : 1 920 pixels
Height : 804 pixels
Display aspect ratio : 2.40:1
Frame rate mode : Constant
Frame rate : 23.976 (24000/1001) FPS
Color space : YUV
Chroma subsampling : 4:2:0
Bit depth : 10 bits
Bits/(Pixel*Frame) : 0.122
Stream size : 4.24 GiB (79%)
Writing library : x265 3.6+13+1-726aec126:[Windows][MSVC 1939][64 bit] 10bit
Encoding settings : cpuid=1111039 / frame-threads=4 / numa-pools=24 / wpp / no-pmode / no-pme / no-psnr / no-ssim / log-level=2 / input-csp=1 / input-res=1920x804 / interlace=0 / total-frames=192964 / level-idc=0 / high-tier=1 / uhd-bd=0 / ref=4 / no-allow-non-conformance / no-repeat-headers / annexb / no-aud / no-eob / no-eos / no-hrd / info / hash=0 / temporal-layers=0 / open-gop / min-keyint=23 / keyint=250 / gop-lookahead=0 / bframes=8 / b-adapt=2 / b-pyramid / bframe-bias=0 / rc-lookahead=80 / lookahead-slices=4 / scenecut=40 / no-hist-scenecut / radl=0 / no-splice / no-intra-refresh / ctu=64 / min-cu-size=8 / no-rect / no-amp / max-tu-size=32 / tu-inter-depth=1 / tu-intra-depth=1 / limit-tu=0 / rdoq-level=2 / dynamic-rd=0.00 / no-ssim-rd / signhide / no-tskip / nr-intra=0 / nr-inter=0 / no-constrained-intra / no-strong-intra-smoothing / max-merge=3 / limit-refs=3 / limit-modes / me=3 / subme=5 / merange=57 / temporal-mvp / no-frame-dup / no-hme / weightp / no-weightb / no-analyze-src-pics / deblock=0:0 / sao / no-sao-non-deblock / rd=4 / selective-sao=4 / no-early-skip / rskip / no-fast-intra / no-tskip-fast / no-cu-lossless / no-b-intra / no-splitrd-skip / rdpenalty=0 / psy-rd=1.30 / psy-rdoq=2.00 / no-rd-refine / no-lossless / cbqpoffs=0 / crqpoffs=0 / rc=crf / crf=18.0 / qcomp=0.60 / qpstep=4 / stats-write=0 / stats-read=0 / ipratio=1.40 / pbratio=1.30 / aq-mode=4 / aq-strength=1.10 / aq-bias-strength=1.00 / cutree / zone-count=0 / no-strict-cbr / qg-size=32 / no-rc-grain / qpmax=69 / qpmin=0 / no-const-vbv / sar=0 / overscan=0 / videoformat=5 / range=0 / colorprim=2 / transfer=2 / colormatrix=2 / chromaloc=0 / display-window=0 / cll=0,0 / min-luma=0 / max-luma=1023 / log2-max-poc-lsb=8 / vui-timing-info / vui-hrd-info / slices=1 / no-opt-qp-pps / no-opt-ref-list-length-pps / no-multi-pass-opt-rps / scenecut-bias=0.05 / no-opt-cu-delta-qp / no-aq-motion / no-hdr10 / no-hdr10-opt / no-dhdr10-opt / no-idr-recovery-sei / analysis-reuse-level=0 / analysis-save-reuse-level=0 / analysis-load-reuse-level=0 / scale-factor=0 / refine-intra=0 / refine-inter=0 / refine-mv=1 / refine-ctu-distortion=0 / no-limit-sao / ctu-info=0 / no-lowpass-dct / refine-analysis-type=0 / copy-pic=1 / max-ausize-factor=1.0 / no-dynamic-refine / no-single-sei / no-hevc-aq / no-svt / no-field / qp-adaptation-range=1.00 / scenecut-aware-qp=0 / conformance-window-offsets / right=0 / bottom=0 / decoder-max-rate=0 / no-vbv-live-multi-pass / no-mcstf / no-sbrc
Default : Yes
Forced : No

Audio
ID : 2
Format : E-AC-3
Format/Info : Enhanced AC-3
Commercial name : Dolby Digital Plus
Format settings : Dolby Surround EX
Codec ID : A_EAC3
Duration : 2 h 14 min
Bit rate mode : Constant
Bit rate : 1 024 kb/s
Channel(s) : 8 channels
Channel layout : L R C LFE Ls Rs Lb Rb
Sampling rate : 48.0 kHz
Frame rate : 31.250 FPS (1536 SPF)
Compression mode : Lossy
Stream size : 982 MiB (18%)
Language : English
Service kind : Complete Main
Default : Yes
Forced : No

Text #1
ID : 3
Format : PGS
Muxing mode : zlib
Codec ID : S_HDMV/PGS
Codec ID/Info : Picture based subtitle format used on BDs/HD-DVDs
Duration : 2 h 6 min
Bit rate : 39.9 kb/s
Count of elements : 3178
Stream size : 36.2 MiB (1%)
Title : English
Language : English
Default : No
Forced : No

Text #2
ID : 4
Format : PGS
Muxing mode : zlib
Codec ID : S_HDMV/PGS
Codec ID/Info : Picture based subtitle format used on BDs/HD-DVDs
Duration : 2 h 7 min
Bit rate : 45.4 kb/s
Count of elements : 3854
Stream size : 41.5 MiB (1%)
Title : English (SDH)
Language : English
Default : No
Forced : No

Text #3
ID : 5
Format : PGS
Muxing mode : zlib
Codec ID : S_HDMV/PGS
Codec ID/Info : Picture based subtitle format used on BDs/HD-DVDs
Duration : 2 h 12 min
Bit rate : 34.7 kb/s
Count of elements : 3166
Stream size : 33.0 MiB (1%)
Title : Danish
Language : Danish
Default : No
Forced : No

Text #4
ID : 6
Format : PGS
Muxing mode : zlib
Codec ID : S_HDMV/PGS
Codec ID/Info : Picture based subtitle format used on BDs/HD-DVDs
Duration : 2 h 12 min
Bit rate : 37.1 kb/s
Count of elements : 3172
Stream size : 35.3 MiB (1%)
Title : Spanish
Language : Spanish
Default : No
Forced : No

Text #5
ID : 7
Format : PGS
Muxing mode : zlib
Codec ID : S_HDMV/PGS
Codec ID/Info : Picture based subtitle format used on BDs/HD-DVDs
Duration : 2 h 12 min
Bit rate : 30.3 kb/s
Count of elements : 2962
Stream size : 28.8 MiB (1%)
Title : French
Language : French
Default : No
Forced : No

Text #6
ID : 8
Format : PGS
Muxing mode : zlib
Codec ID : S_HDMV/PGS
Codec ID/Info : Picture based subtitle format used on BDs/HD-DVDs
Duration : 2 h 12 min
Bit rate : 37.6 kb/s
Count of elements : 3196
Stream size : 35.8 MiB (1%)
Title : Italian
Language : Italian
Default : No
Forced : No

Text #7
ID : 9
Format : PGS
Muxing mode : zlib
Codec ID : S_HDMV/PGS
Codec ID/Info : Picture based subtitle format used on BDs/HD-DVDs
Duration : 2 h 12 min
Bit rate : 36.0 kb/s
Count of elements : 2748
Stream size : 34.3 MiB (1%)
Title : Dutch
Language : Dutch
Default : No
Forced : No

Text #8
ID : 10
Format : PGS
Muxing mode : zlib
Codec ID : S_HDMV/PGS
Codec ID/Info : Picture based subtitle format used on BDs/HD-DVDs
Duration : 2 h 12 min
Bit rate : 33.5 kb/s
Count of elements : 2682
Stream size : 31.9 MiB (1%)
Title : Norwegian
Language : Norwegian
Default : No
Forced : No

Text #9
ID : 11
Format : PGS
Muxing mode : zlib
Codec ID : S_HDMV/PGS
Codec ID/Info : Picture based subtitle format used on BDs/HD-DVDs
Duration : 2 h 12 min
Bit rate : 34.8 kb/s
Count of elements : 3158
Stream size : 33.1 MiB (1%)
Title : Portuguese
Language : Portuguese
Default : No
Forced : No

Text #10
ID : 12
Format : PGS
Muxing mode : zlib
Codec ID : S_HDMV/PGS
Codec ID/Info : Picture based subtitle format used on BDs/HD-DVDs
Duration : 2 h 12 min
Bit rate : 37.8 kb/s
Count of elements : 3166
Stream size : 36.0 MiB (1%)
Title : Finnish
Language : Finnish
Default : No
Forced : No

Text #11
ID : 13
Format : PGS
Muxing mode : zlib
Codec ID : S_HDMV/PGS
Codec ID/Info : Picture based subtitle format used on BDs/HD-DVDs
Duration : 2 h 12 min
Bit rate : 33.6 kb/s
Count of elements : 2810
Stream size : 32.0 MiB (1%)
Title : Swedish
Language : Swedish
Default : No
Forced : No

Menu
00:00:00.000 : en:Chapter 01
00:07:55.475 : en:Chapter 02
00:14:48.387 : en:Chapter 03
00:26:48.565 : en:Chapter 04
00:33:54.365 : en:Chapter 05
00:42:14.365 : en:Chapter 06
00:49:19.665 : en:Chapter 07
00:57:33.408 : en:Chapter 08
01:05:10.197 : en:Chapter 09
01:17:03.243 : en:Chapter 10
01:26:41.070 : en:Chapter 11
01:32:11.108 : en:Chapter 12
01:40:15.676 : en:Chapter 13
01:47:44.541 : en:Chapter 14
01:53:30.136 : en:Chapter 15
02:05:37.071 : en:Chapter 16

Source Media Information

General
Unique ID : 53654201099874048550110642413346097178 (0x285D6C5A607D258D1438B961516E081A)
Complete name : Dungeons.&.Dragons.Honor.Among.Thieves.2023.BluRay.1080p.REMUX.AVC.Atmos.DTS-HD.MA.7.1-LEGi0N.mkv
Format : Matroska
Format version : Version 4
File size : 33.9 GiB
Duration : 2 h 14 min
Overall bit rate mode : Variable
Overall bit rate : 36.2 Mb/s
Movie name : Dungeons and Dragons - Honor Among Thieves
Encoded date : UTC 2023-05-25 12:36:01
Writing application : mkvmerge v75.0.0 ('Goliath') 64-bit
Writing library : libebml v1.4.4 + libmatroska v1.7.1
Cover : Yes
Attachments : cover.jpg

Video
ID : 1
ID in the original source medium : 4113 (0x1011)
Format : AVC
Format/Info : Advanced Video Codec: Format profile : High@L4.1
Format settings : CABAC / 4 Ref Frames
Format settings, CABAC : Yes
Format settings, Reference frames : 4 frames
Format settings, GOP : M=3, N=12
Codec ID : V_MPEG4/ISO/AVC
Duration : 2 h 14 min
Bit rate mode : Variable
Bit rate : 26.3 Mb/s
Maximum bit rate : 31.9 Mb/s
Width : 1 920 pixels
Height : 1 080 pixels
Display aspect ratio : 16:9
Frame rate mode : Constant
Frame rate : 23.976 (24000/1001) FPS
Color space : YUV
Chroma subsampling : 4:2:0
Bit depth : 8 bits
Scan type : Progressive
Bits/(Pixel*Frame) : 0.529
Stream size : 24.7 GiB (73%)
Title : English
Language : English
Default : Yes
Forced : No
Original source medium : Blu-ray

Audio #1
ID : 2
ID in the original source medium : 4352 (0x1100)
Format : MLP FBA 16-ch
Format/Info : Meridian Lossless Packing FBA with 16-channel presentation
Commercial name : Dolby TrueHD with Dolby Atmos
Codec ID : A_TRUEHD
Duration : 2 h 14 min
Bit rate mode : Variable
Bit rate : 4 347 kb/s
Maximum bit rate : 7 362 kb/s
Channel(s) : 8 channels
Channel layout : L R C LFE Ls Rs Lb Rb
Sampling rate : 48.0 kHz
Frame rate : 1 200.000 FPS (40 SPF)
Compression mode : Lossless
Stream size : 4.07 GiB (12%)
Title : English
Language : English
Default : Yes
Forced : No
Original source medium : Blu-ray
Number of dynamic objects : 11
Bed channel count : 1 channel
Bed channel configuration : LFE

Audio #2
ID : 3
ID in the original source medium : 4352 (0x1100)
Format : AC-3
Format/Info : Audio Coding 3
Commercial name : Dolby Digital
Format settings : Dolby Surround EX
Codec ID : A_AC3
Duration : 2 h 14 min
Bit rate mode : Constant
Bit rate : 640 kb/s
Channel(s) : 6 channels
Channel layout : L R C LFE Ls Rs
Sampling rate : 48.0 kHz
Frame rate : 31.250 FPS (1536 SPF)
Compression mode : Lossy
Stream size : 614 MiB (2%)
Title : English
Language : English
Service kind : Complete Main
Default : No
Forced : No
Original source medium : Blu-ray

Audio #3
ID : 4
Format : DTS XLL
Format/Info : Digital Theater Systems
Commercial name : DTS-HD Master Audio
Codec ID : A_DTS
Duration : 2 h 14 min
Bit rate mode : Variable
Bit rate : 4 404 kb/s
Channel(s) : 8 channels
Channel layout : C L R LFE Lb Rb Lss Rss
Sampling rate : 48.0 kHz
Frame rate : 93.750 FPS (512 SPF)
Bit depth : 24 bits
Compression mode : Lossless
Stream size : 4.13 GiB (12%)
Title : English DTSHD MA 7.1 4 405 Kbps
Language : English
Default : No
Forced : No

Text #1
ID : 5
ID in the original source medium : 4608 (0x1200)
Format : PGS
Codec ID : S_HDMV/PGS
Codec ID/Info : Picture based subtitle format used on BDs/HD-DVDs
Duration : 2 h 6 min
Bit rate : 39.9 kb/s
Count of elements : 3178
Stream size : 36.2 MiB (0%)
Title : English
Language : English
Default : No
Forced : No
Original source medium : Blu-ray

Text #2
ID : 6
ID in the original source medium : 4609 (0x1201)
Format : PGS
Codec ID : S_HDMV/PGS
Codec ID/Info : Picture based subtitle format used on BDs/HD-DVDs
Duration : 2 h 7 min
Bit rate : 45.4 kb/s
Count of elements : 3854
Stream size : 41.5 MiB (0%)
Title : English (SDH)
Language : English
Default : No
Forced : No
Original source medium : Blu-ray

Text #3
ID : 7
ID in the original source medium : 4610 (0x1202)
Format : PGS
Codec ID : S_HDMV/PGS
Codec ID/Info : Picture based subtitle format used on BDs/HD-DVDs
Duration : 2 h 12 min
Bit rate : 34.7 kb/s
Count of elements : 3166
Stream size : 33.0 MiB (0%)
Title : Danish
Language : Danish
Default : No
Forced : No
Original source medium : Blu-ray

Text #4
ID : 8
ID in the original source medium : 4611 (0x1203)
Format : PGS
Codec ID : S_HDMV/PGS
Codec ID/Info : Picture based subtitle format used on BDs/HD-DVDs
Duration : 2 h 12 min
Bit rate : 37.1 kb/s
Count of elements : 3172
Stream size : 35.3 MiB (0%)
Title : Spanish
Language : Spanish
Default : No
Forced : No
Original source medium : Blu-ray

Text #5
ID : 9
ID in the original source medium : 4613 (0x1205)
Format : PGS
Codec ID : S_HDMV/PGS
Codec ID/Info : Picture based subtitle format used on BDs/HD-DVDs
Duration : 2 h 12 min
Bit rate : 30.3 kb/s
Count of elements : 2962
Stream size : 28.8 MiB (0%)
Title : French
Language : French
Default : No
Forced : No
Original source medium : Blu-ray

Text #6
ID : 10
ID in the original source medium : 4615 (0x1207)
Format : PGS
Codec ID : S_HDMV/PGS
Codec ID/Info : Picture based subtitle format used on BDs/HD-DVDs
Duration : 2 h 12 min
Bit rate : 37.6 kb/s
Count of elements : 3196
Stream size : 35.8 MiB (0%)
Title : Italian
Language : Italian
Default : No
Forced : No
Original source medium : Blu-ray

Text #7
ID : 11
ID in the original source medium : 4616 (0x1208)
Format : PGS
Codec ID : S_HDMV/PGS
Codec ID/Info : Picture based subtitle format used on BDs/HD-DVDs
Duration : 2 h 12 min
Bit rate : 36.0 kb/s
Count of elements : 2748
Stream size : 34.3 MiB (0%)
Title : Dutch
Language : Dutch
Default : No
Forced : No
Original source medium : Blu-ray

Text #8
ID : 12
ID in the original source medium : 4617 (0x1209)
Format : PGS
Codec ID : S_HDMV/PGS
Codec ID/Info : Picture based subtitle format used on BDs/HD-DVDs
Duration : 2 h 12 min
Bit rate : 33.5 kb/s
Count of elements : 2682
Stream size : 31.9 MiB (0%)
Title : Norwegian
Language : Norwegian
Default : No
Forced : No
Original source medium : Blu-ray

Text #9
ID : 13
ID in the original source medium : 4618 (0x120A)
Format : PGS
Codec ID : S_HDMV/PGS
Codec ID/Info : Picture based subtitle format used on BDs/HD-DVDs
Duration : 2 h 12 min
Bit rate : 34.8 kb/s
Count of elements : 3158
Stream size : 33.1 MiB (0%)
Title : Portuguese
Language : Portuguese
Default : No
Forced : No
Original source medium : Blu-ray

Text #10
ID : 14
ID in the original source medium : 4619 (0x120B)
Format : PGS
Codec ID : S_HDMV/PGS
Codec ID/Info : Picture based subtitle format used on BDs/HD-DVDs
Duration : 2 h 12 min
Bit rate : 37.8 kb/s
Count of elements : 3166
Stream size : 36.0 MiB (0%)
Title : Finnish
Language : Finnish
Default : No
Forced : No
Original source medium : Blu-ray

Text #11
ID : 15
ID in the original source medium : 4620 (0x120C)
Format : PGS
Codec ID : S_HDMV/PGS
Codec ID/Info : Picture based subtitle format used on BDs/HD-DVDs
Duration : 2 h 12 min
Bit rate : 33.6 kb/s
Count of elements : 2810
Stream size : 32.0 MiB (0%)
Title : Swedish
Language : Swedish
Default : No
Forced : No
Original source medium : Blu-ray

Menu
00:00:00.000 : en:Chapter 01
00:07:55.475 : en:Chapter 02
00:14:48.387 : en:Chapter 03
00:26:48.565 : en:Chapter 04
00:33:54.365 : en:Chapter 05
00:42:14.365 : en:Chapter 06
00:49:19.665 : en:Chapter 07
00:57:33.408 : en:Chapter 08
01:05:10.197 : en:Chapter 09
01:17:03.243 : en:Chapter 10
01:26:41.070 : en:Chapter 11
01:32:11.108 : en:Chapter 12
01:40:15.676 : en:Chapter 13
01:47:44.541 : en:Chapter 14
01:53:30.136 : en:Chapter 15
02:05:37.071 : en:Chapter 16

Files