Rise of the Planet of the Apes 2011 UHD BluRay 1080p DDP 5 1 DoVi HDR x265-SM737

An origin story set in present day San Francisco, where man's own experiments with genetic engineering lead to the development of intelligence in apes and the onset of a war for supremacy.

Year: 2011
Duration: 105 min
Release date: Friday 5th August 2011
Genre: Action, Drama, Sci-Fi, Thriller

Rating

7.6/10
(1143 Votes)

0

Your Rating

Stars:
James Franco, Andy Serkis, Freida Pinto, John Lithgow

https://www.imdb.com/title/tt1318514/

General
Unique ID : 62467565023209124031252902472028924439 (0x2EFED0BE423235AC44144BA4FBB62A17)
Complete name : Rise.of.the.Planet.of.the.Apes.2011.UHD.BluRay.1080p.DDP.5.1.DoVi.HDR.x265-SM737.mkv
Format : Matroska
Format version : Version 4
File size : 4.94 GiB
Duration : 1 h 44 min
Overall bit rate : 6 739 kb/s
Frame rate : 23.976 FPS
Encoded date : 2024-06-19 14:02:50 UTC
Writing application : mkvmerge v82.0 ('I'm The President') 64-bit
Writing library : libebml v1.4.5 + libmatroska v1.7.1 / Lavf61.1.100

Video
ID : 1
Format : HEVC
Format/Info : High Efficiency Video Coding
Format profile : Main 10@L5.2@High
HDR format : Dolby Vision, Version 1.0, dvhe.08.10, BL+RPU, HDR10 compatible / SMPTE ST 2086, HDR10 compatible / SMPTE ST 2086, HDR10 compatible
Codec ID : V_MPEGH/ISO/HEVC
Duration : 1 h 44 min
Bit rate : 5 034 kb/s
Width : 1 920 pixels
Height : 818 pixels
Display aspect ratio : 2.35:1
Frame rate mode : Constant
Frame rate : 23.976 (24000/1001) FPS
Color space : YUV
Chroma subsampling : 4:2:0 (Type 2)
Bit depth : 10 bits
Bits/(Pixel*Frame) : 0.134
Stream size : 3.69 GiB (75%)
Writing library : x265 3.6+1-aa7f602f7:[Windows][GCC 13.2.0][64 bit] 10bit
Encoding settings : cpuid=1111039 / frame-threads=4 / numa-pools=16 / wpp / no-pmode / no-pme / no-psnr / no-ssim / log-level=2 / input-csp=1 / input-res=1920x818 / interlace=0 / total-frames=0 / level-idc=52 / high-tier=1 / uhd-bd=0 / ref=6 / no-allow-non-conformance / repeat-headers / annexb / aud / no-eob / no-eos / hrd / info / hash=0 / temporal-layers=0 / open-gop / min-keyint=24 / keyint=240 / gop-lookahead=0 / bframes=8 / b-adapt=2 / b-pyramid / bframe-bias=0 / rc-lookahead=40 / lookahead-slices=4 / scenecut=40 / no-hist-scenecut / radl=0 / no-splice / no-intra-refresh / ctu=64 / min-cu-size=8 / rect / no-amp / max-tu-size=32 / tu-inter-depth=1 / tu-intra-depth=1 / limit-tu=0 / rdoq-level=2 / dynamic-rd=0.00 / no-ssim-rd / signhide / no-tskip / nr-intra=0 / nr-inter=0 / no-constrained-intra / strong-intra-smoothing / max-merge=3 / limit-refs=3 / limit-modes / me=3 / subme=3 / merange=57 / temporal-mvp / no-frame-dup / no-hme / no-weightp / no-weightb / no-analyze-src-pics / deblock=-3:-3 / no-sao / no-sao-non-deblock / rd=4 / selective-sao=0 / no-early-skip / rskip / no-fast-intra / no-tskip-fast / no-cu-lossless / no-b-intra / no-splitrd-skip / rdpenalty=0 / psy-rd=2.00 / psy-rdoq=1.00 / no-rd-refine / no-lossless / cbqpoffs=0 / crqpoffs=0 / rc=abr / bitrate=5000 / qcomp=0.60 / qpstep=4 / stats-write=0 / stats-read=2 / cplxblur=20.0 / qblur=0.5 / vbv-maxrate=240000 / vbv-bufsize=240000 / vbv-init=0.9 / min-vbv-fullness=50.0 / max-vbv-fullness=80.0 / ipratio=1.40 / pbratio=1.30 / aq-mode=4 / aq-strength=1.00 / cutree / zone-count=0 / no-strict-cbr / qg-size=32 / no-rc-grain / qpmax=69 / qpmin=0 / no-const-vbv / sar=1 / overscan=0 / videoformat=5 / range=0 / colorprim=9 / transfer=16 / colormatrix=9 / chromaloc=1 / chromaloc-top=2 / chromaloc-bottom=2 / display-window=0 / master-display=G(13250,34500)B(7500,3000)R(34000,16000)WP(15635,16450)L(10000000,0) / cll=0,0 / min-luma=0 / max-luma=1023 / log2-max-poc-lsb=8 / vui-timing-info / vui-hrd-info / slices=1 / no-opt-qp-pps / no-opt-ref-list-length-pps / no-multi-pass-opt-rps / scenecut-bias=0.05 / no-opt-cu-delta-qp / no-aq-motion / hdr10 / hdr10-opt / no-dhdr10-opt / no-idr-recovery-sei / analysis-reuse-level=0 / analysis-save-reuse-level=0 / analysis-load-reuse-level=0 / scale-factor=0 / refine-intra=0 / refine-inter=0 / refine-mv=1 / refine-ctu-distortion=0 / no-limit-sao / ctu-info=0 / no-lowpass-dct / refine-analysis-type=0 / copy-pic=1 / max-ausize-factor=1.0 / no-dynamic-refine / no-single-sei / no-hevc-aq / no-svt / no-field / qp-adaptation-range=1.00 / scenecut-aware-qp=0conformance-window-offsets / right=0 / bottom=0 / decoder-max-rate=0 / no-vbv-live-multi-pass / no-mcstf / no-sbrc
Default : Yes
Forced : No
Color range : Limited
Color primaries : BT.2020
Transfer characteristics : PQ
Matrix coefficients : BT.2020 non-constant
Mastering display color primaries : Display P3
Mastering display luminance : min: 0.0000 cd/m2, max: 1000 cd/m2

Audio #1
ID : 2
Format : E-AC-3
Format/Info : Enhanced AC-3
Commercial name : Dolby Digital Plus
Codec ID : A_EAC3
Duration : 1 h 44 min
Bit rate mode : Constant
Bit rate : 768 kb/s
Channel(s) : 6 channels
Channel layout : L R C LFE Ls Rs
Sampling rate : 48.0 kHz
Frame rate : 31.250 FPS (1536 SPF)
Compression mode : Lossy
Stream size : 576 MiB (11%)
Title : Surround
Language : English
Service kind : Complete Main
Default : Yes
Forced : No

Audio #2
ID : 3
Format : AC-3
Format/Info : Audio Coding 3
Commercial name : Dolby Digital
Codec ID : A_AC3
Duration : 1 h 44 min
Bit rate mode : Constant
Bit rate : 224 kb/s
Channel(s) : 2 channels
Channel layout : L R
Sampling rate : 48.0 kHz
Frame rate : 31.250 FPS (1536 SPF)
Compression mode : Lossy
Stream size : 168 MiB (3%)
Title : Commentary by Director Rupert Wyatt
Language : English
Service kind : Complete Main
Default : No
Forced : No

Audio #3
ID : 4
Format : AC-3
Format/Info : Audio Coding 3
Commercial name : Dolby Digital
Codec ID : A_AC3
Duration : 1 h 44 min
Bit rate mode : Constant
Bit rate : 224 kb/s
Channel(s) : 2 channels
Channel layout : L R
Sampling rate : 48.0 kHz
Frame rate : 31.250 FPS (1536 SPF)
Compression mode : Lossy
Stream size : 168 MiB (3%)
Title : Commentary by Writers Rick Jaffa and Amanda Silver
Language : English
Service kind : Complete Main
Default : No
Forced : No

Text #1
ID : 5
Format : PGS
Muxing mode : zlib
Codec ID : S_HDMV/PGS
Codec ID/Info : Picture based subtitle format used on BDs/HD-DVDs
Duration : 1 h 43 min
Bit rate : 24.5 kb/s
Frame rate : 0.335 FPS
Count of elements : 2076
Stream size : 18.1 MiB (0%)
Title : English (SDH)
Language : English
Default : Yes
Forced : No

Text #2
ID : 6
Format : PGS
Muxing mode : zlib
Codec ID : S_HDMV/PGS
Codec ID/Info : Picture based subtitle format used on BDs/HD-DVDs
Duration : 1 h 41 min
Bit rate : 19.2 kb/s
Frame rate : 0.267 FPS
Count of elements : 1628
Stream size : 14.0 MiB (0%)
Title : English
Language : English
Default : No
Forced : No

Text #3
ID : 7
Format : PGS
Muxing mode : zlib
Codec ID : S_HDMV/PGS
Codec ID/Info : Picture based subtitle format used on BDs/HD-DVDs
Duration : 1 h 41 min
Bit rate : 8 924 b/s
Frame rate : 0.281 FPS
Count of elements : 1718
Stream size : 6.50 MiB (0%)
Title : Arabic
Language : Arabic
Default : No
Forced : No

Text #4
ID : 8
Format : PGS
Muxing mode : zlib
Codec ID : S_HDMV/PGS
Codec ID/Info : Picture based subtitle format used on BDs/HD-DVDs
Duration : 1 h 43 min
Bit rate : 16.3 kb/s
Frame rate : 0.223 FPS
Count of elements : 1386
Stream size : 12.1 MiB (0%)
Title : Bulgarian
Language : Bulgarian
Default : No
Forced : No

Text #5
ID : 9
Format : PGS
Muxing mode : zlib
Codec ID : S_HDMV/PGS
Codec ID/Info : Picture based subtitle format used on BDs/HD-DVDs
Duration : 1 h 43 min
Bit rate : 13.7 kb/s
Frame rate : 0.275 FPS
Count of elements : 1712
Stream size : 10.2 MiB (0%)
Title : Chinese (Cantonese)
Language : Chinese
Default : No
Forced : No

Text #6
ID : 10
Format : PGS
Muxing mode : zlib
Codec ID : S_HDMV/PGS
Codec ID/Info : Picture based subtitle format used on BDs/HD-DVDs
Duration : 1 h 41 min
Bit rate : 16.8 kb/s
Frame rate : 0.273 FPS
Count of elements : 1664
Stream size : 12.2 MiB (0%)
Title : Chinese (Mandarin Simplified)
Language : Chinese
Default : No
Forced : No

Text #7
ID : 11
Format : PGS
Muxing mode : zlib
Codec ID : S_HDMV/PGS
Codec ID/Info : Picture based subtitle format used on BDs/HD-DVDs
Duration : 1 h 43 min
Bit rate : 15.7 kb/s
Frame rate : 0.299 FPS
Count of elements : 1860
Stream size : 11.7 MiB (0%)
Title : Chinese (Mandarin Traditional)
Language : Chinese
Default : No
Forced : No

Text #8
ID : 12
Format : PGS
Muxing mode : zlib
Codec ID : S_HDMV/PGS
Codec ID/Info : Picture based subtitle format used on BDs/HD-DVDs
Duration : 1 h 41 min
Bit rate : 18.4 kb/s
Frame rate : 0.271 FPS
Count of elements : 1654
Stream size : 13.4 MiB (0%)
Title : Croatian
Language : Croatian
Default : No
Forced : No

Text #9
ID : 13
Format : PGS
Muxing mode : zlib
Codec ID : S_HDMV/PGS
Codec ID/Info : Picture based subtitle format used on BDs/HD-DVDs
Duration : 1 h 41 min
Bit rate : 17.8 kb/s
Frame rate : 0.270 FPS
Count of elements : 1648
Stream size : 13.0 MiB (0%)
Title : Czech
Language : Czech
Default : No
Forced : No

Text #10
ID : 14
Format : PGS
Muxing mode : zlib
Codec ID : S_HDMV/PGS
Codec ID/Info : Picture based subtitle format used on BDs/HD-DVDs
Duration : 1 h 41 min
Bit rate : 17.6 kb/s
Frame rate : 0.224 FPS
Count of elements : 1366
Stream size : 12.8 MiB (0%)
Title : Danish
Language : Danish
Default : No
Forced : No

Text #11
ID : 15
Format : PGS
Muxing mode : zlib
Codec ID : S_HDMV/PGS
Codec ID/Info : Picture based subtitle format used on BDs/HD-DVDs
Duration : 1 h 41 min
Bit rate : 15.6 kb/s
Frame rate : 0.236 FPS
Count of elements : 1440
Stream size : 11.4 MiB (0%)
Title : Dutch
Language : Dutch
Default : No
Forced : No

Text #12
ID : 16
Format : PGS
Muxing mode : zlib
Codec ID : S_HDMV/PGS
Codec ID/Info : Picture based subtitle format used on BDs/HD-DVDs
Duration : 1 h 41 min
Bit rate : 18.6 kb/s
Frame rate : 0.271 FPS
Count of elements : 1652
Stream size : 13.5 MiB (0%)
Title : Estonian
Language : Estonian
Default : No
Forced : No

Text #13
ID : 17
Format : PGS
Muxing mode : zlib
Codec ID : S_HDMV/PGS
Codec ID/Info : Picture based subtitle format used on BDs/HD-DVDs
Duration : 1 h 43 min
Bit rate : 15.4 kb/s
Frame rate : 0.216 FPS
Count of elements : 1346
Stream size : 11.4 MiB (0%)
Title : Finnish
Language : Finnish
Default : No
Forced : No

Text #14
ID : 18
Format : PGS
Muxing mode : zlib
Codec ID : S_HDMV/PGS
Codec ID/Info : Picture based subtitle format used on BDs/HD-DVDs
Duration : 1 h 43 min
Bit rate : 14.1 kb/s
Frame rate : 0.218 FPS
Count of elements : 1358
Stream size : 10.5 MiB (0%)
Title : French
Language : French
Default : No
Forced : No

Text #15
ID : 19
Format : PGS
Muxing mode : zlib
Codec ID : S_HDMV/PGS
Codec ID/Info : Picture based subtitle format used on BDs/HD-DVDs
Duration : 1 h 41 min
Bit rate : 19.2 kb/s
Frame rate : 0.263 FPS
Count of elements : 1604
Stream size : 14.0 MiB (0%)
Title : German
Language : German
Default : No
Forced : No

Text #16
ID : 20
Format : PGS
Muxing mode : zlib
Codec ID : S_HDMV/PGS
Codec ID/Info : Picture based subtitle format used on BDs/HD-DVDs
Duration : 1 h 41 min
Bit rate : 16.4 kb/s
Frame rate : 0.188 FPS
Count of elements : 1150
Stream size : 11.9 MiB (0%)
Title : Greek
Language : Greek
Default : No
Forced : No

Text #17
ID : 21
Format : PGS
Muxing mode : zlib
Codec ID : S_HDMV/PGS
Codec ID/Info : Picture based subtitle format used on BDs/HD-DVDs
Duration : 1 h 41 min
Bit rate : 13.0 kb/s
Frame rate : 0.284 FPS
Count of elements : 1734
Stream size : 9.44 MiB (0%)
Title : Hebrew
Language : Hebrew
Default : No
Forced : No

Text #18
ID : 22
Format : PGS
Muxing mode : zlib
Codec ID : S_HDMV/PGS
Codec ID/Info : Picture based subtitle format used on BDs/HD-DVDs
Duration : 1 h 41 min
Bit rate : 15.2 kb/s
Frame rate : 0.273 FPS
Count of elements : 1666
Stream size : 11.1 MiB (0%)
Title : Hindi
Language : Hindi
Default : No
Forced : No

Text #19
ID : 23
Format : PGS
Muxing mode : zlib
Codec ID : S_HDMV/PGS
Codec ID/Info : Picture based subtitle format used on BDs/HD-DVDs
Duration : 1 h 43 min
Bit rate : 15.2 kb/s
Frame rate : 0.208 FPS
Count of elements : 1294
Stream size : 11.3 MiB (0%)
Title : Hungarian
Language : Hungarian
Default : No
Forced : No

Text #20
ID : 24
Format : PGS
Muxing mode : zlib
Codec ID : S_HDMV/PGS
Codec ID/Info : Picture based subtitle format used on BDs/HD-DVDs
Duration : 1 h 41 min
Bit rate : 19.4 kb/s
Frame rate : 0.271 FPS
Count of elements : 1652
Stream size : 14.2 MiB (0%)
Title : Icelandic
Language : Icelandic
Default : No
Forced : No

Text #21
ID : 25
Format : PGS
Muxing mode : zlib
Codec ID : S_HDMV/PGS
Codec ID/Info : Picture based subtitle format used on BDs/HD-DVDs
Duration : 1 h 41 min
Bit rate : 20.6 kb/s
Frame rate : 0.284 FPS
Count of elements : 1734
Stream size : 15.0 MiB (0%)
Title : Indonesian
Language : Indonesian
Default : No
Forced : No

Text #22
ID : 26
Format : PGS
Muxing mode : zlib
Codec ID : S_HDMV/PGS
Codec ID/Info : Picture based subtitle format used on BDs/HD-DVDs
Duration : 1 h 41 min
Bit rate : 19.3 kb/s
Frame rate : 0.270 FPS
Count of elements : 1650
Stream size : 14.0 MiB (0%)
Title : Italian
Language : Italian
Default : No
Forced : No

Text #23
ID : 27
Format : PGS
Muxing mode : zlib
Codec ID : S_HDMV/PGS
Codec ID/Info : Picture based subtitle format used on BDs/HD-DVDs
Duration : 1 h 35 min
Bit rate : 12.9 kb/s
Frame rate : 0.248 FPS
Count of elements : 1417
Stream size : 8.82 MiB (0%)
Title : Japanese
Language : Japanese
Default : No
Forced : No

Text #24
ID : 28
Format : PGS
Muxing mode : zlib
Codec ID : S_HDMV/PGS
Codec ID/Info : Picture based subtitle format used on BDs/HD-DVDs
Duration : 1 h 43 min
Bit rate : 9 768 b/s
Frame rate : 0.276 FPS
Count of elements : 1722
Stream size : 7.25 MiB (0%)
Title : Korean
Language : Korean
Default : No
Forced : No

Text #25
ID : 29
Format : PGS
Muxing mode : zlib
Codec ID : S_HDMV/PGS
Codec ID/Info : Picture based subtitle format used on BDs/HD-DVDs
Duration : 1 h 41 min
Bit rate : 15.0 kb/s
Frame rate : 0.255 FPS
Count of elements : 1556
Stream size : 10.9 MiB (0%)
Title : Latvian
Language : Latvian
Default : No
Forced : No

Text #26
ID : 30
Format : PGS
Muxing mode : zlib
Codec ID : S_HDMV/PGS
Codec ID/Info : Picture based subtitle format used on BDs/HD-DVDs
Duration : 1 h 41 min
Bit rate : 18.2 kb/s
Frame rate : 0.286 FPS
Count of elements : 1748
Stream size : 13.2 MiB (0%)
Title : Lithuanian
Language : Lithuanian
Default : No
Forced : No

Text #27
ID : 31
Format : PGS
Muxing mode : zlib
Codec ID : S_HDMV/PGS
Codec ID/Info : Picture based subtitle format used on BDs/HD-DVDs
Duration : 1 h 41 min
Bit rate : 17.1 kb/s
Frame rate : 0.274 FPS
Count of elements : 1674
Stream size : 12.5 MiB (0%)
Title : Norwegian
Language : Norwegian
Default : No
Forced : No

Text #28
ID : 32
Format : PGS
Muxing mode : zlib
Codec ID : S_HDMV/PGS
Codec ID/Info : Picture based subtitle format used on BDs/HD-DVDs
Duration : 1 h 41 min
Bit rate : 22.0 kb/s
Frame rate : 0.270 FPS
Count of elements : 1650
Stream size : 16.0 MiB (0%)
Title : Malay
Language : Malay
Default : No
Forced : No

Text #29
ID : 33
Format : PGS
Muxing mode : zlib
Codec ID : S_HDMV/PGS
Codec ID/Info : Picture based subtitle format used on BDs/HD-DVDs
Duration : 1 h 41 min
Bit rate : 13.3 kb/s
Frame rate : 0.191 FPS
Count of elements : 1168
Stream size : 9.70 MiB (0%)
Title : Polish
Language : Polish
Default : No
Forced : No

Text #30
ID : 34
Format : PGS
Muxing mode : zlib
Codec ID : S_HDMV/PGS
Codec ID/Info : Picture based subtitle format used on BDs/HD-DVDs
Duration : 1 h 43 min
Bit rate : 18.3 kb/s
Frame rate : 0.279 FPS
Count of elements : 1736
Stream size : 13.6 MiB (0%)
Title : Portuguese (Brazilian)
Language : Portuguese
Default : No
Forced : No

Text #31
ID : 35
Format : PGS
Muxing mode : zlib
Codec ID : S_HDMV/PGS
Codec ID/Info : Picture based subtitle format used on BDs/HD-DVDs
Duration : 1 h 41 min
Bit rate : 19.2 kb/s
Frame rate : 0.271 FPS
Count of elements : 1652
Stream size : 14.0 MiB (0%)
Title : Portuguese (Iberian)
Language : Portuguese
Default : No
Forced : No

Text #32
ID : 36
Format : PGS
Muxing mode : zlib
Codec ID : S_HDMV/PGS
Codec ID/Info : Picture based subtitle format used on BDs/HD-DVDs
Duration : 1 h 43 min
Bit rate : 17.0 kb/s
Frame rate : 0.237 FPS
Count of elements : 1476
Stream size : 12.6 MiB (0%)
Title : Romanian
Language : Romanian
Default : No
Forced : No

Text #33
ID : 37
Format : PGS
Muxing mode : zlib
Codec ID : S_HDMV/PGS
Codec ID/Info : Picture based subtitle format used on BDs/HD-DVDs
Duration : 1 h 41 min
Bit rate : 18.7 kb/s
Frame rate : 0.272 FPS
Count of elements : 1658
Stream size : 13.6 MiB (0%)
Title : Russian
Language : Russian
Default : No
Forced : No

Text #34
ID : 38
Format : PGS
Muxing mode : zlib
Codec ID : S_HDMV/PGS
Codec ID/Info : Picture based subtitle format used on BDs/HD-DVDs
Duration : 1 h 41 min
Bit rate : 16.6 kb/s
Frame rate : 0.273 FPS
Count of elements : 1664
Stream size : 12.1 MiB (0%)
Title : Serbian
Language : Serbian
Default : No
Forced : No

Text #35
ID : 39
Format : PGS
Muxing mode : zlib
Codec ID : S_HDMV/PGS
Codec ID/Info : Picture based subtitle format used on BDs/HD-DVDs
Duration : 1 h 41 min
Bit rate : 16.6 kb/s
Frame rate : 0.271 FPS
Count of elements : 1654
Stream size : 12.1 MiB (0%)
Title : Slovenian
Language : Slovenian
Default : No
Forced : No

Text #36
ID : 40
Format : PGS
Muxing mode : zlib
Codec ID : S_HDMV/PGS
Codec ID/Info : Picture based subtitle format used on BDs/HD-DVDs
Duration : 1 h 41 min
Bit rate : 20.1 kb/s
Frame rate : 0.271 FPS
Count of elements : 1652
Stream size : 14.7 MiB (0%)
Title : Spanish (Castilian)
Language : Spanish
Default : No
Forced : No

Text #37
ID : 41
Format : PGS
Muxing mode : zlib
Codec ID : S_HDMV/PGS
Codec ID/Info : Picture based subtitle format used on BDs/HD-DVDs
Duration : 1 h 43 min
Bit rate : 19.8 kb/s
Frame rate : 0.261 FPS
Count of elements : 1624
Stream size : 14.7 MiB (0%)
Title : Spanish (Latin American)
Language : Spanish
Default : No
Forced : No

Text #38
ID : 42
Format : PGS
Muxing mode : zlib
Codec ID : S_HDMV/PGS
Codec ID/Info : Picture based subtitle format used on BDs/HD-DVDs
Duration : 1 h 43 min
Bit rate : 15.4 kb/s
Frame rate : 0.185 FPS
Count of elements : 1150
Stream size : 11.4 MiB (0%)
Title : Swedish
Language : Swedish
Default : No
Forced : No

Text #39
ID : 43
Format : PGS
Muxing mode : zlib
Codec ID : S_HDMV/PGS
Codec ID/Info : Picture based subtitle format used on BDs/HD-DVDs
Duration : 1 h 41 min
Bit rate : 20.0 kb/s
Frame rate : 0.273 FPS
Count of elements : 1666
Stream size : 14.5 MiB (0%)
Title : Tamil
Language : Tamil
Default : No
Forced : No

Text #40
ID : 44
Format : PGS
Muxing mode : zlib
Codec ID : S_HDMV/PGS
Codec ID/Info : Picture based subtitle format used on BDs/HD-DVDs
Duration : 1 h 41 min
Bit rate : 18.1 kb/s
Frame rate : 0.273 FPS
Count of elements : 1666
Stream size : 13.2 MiB (0%)
Title : Telugu
Language : Telugu
Default : No
Forced : No

Text #41
ID : 45
Format : PGS
Muxing mode : zlib
Codec ID : S_HDMV/PGS
Codec ID/Info : Picture based subtitle format used on BDs/HD-DVDs
Duration : 1 h 43 min
Bit rate : 14.6 kb/s
Frame rate : 0.268 FPS
Count of elements : 1668
Stream size : 10.8 MiB (0%)
Title : Thai
Language : Thai
Default : No
Forced : No

Text #42
ID : 46
Format : PGS
Muxing mode : zlib
Codec ID : S_HDMV/PGS
Codec ID/Info : Picture based subtitle format used on BDs/HD-DVDs
Duration : 1 h 41 min
Bit rate : 20.1 kb/s
Frame rate : 0.280 FPS
Count of elements : 1710
Stream size : 14.7 MiB (0%)
Title : Turkish
Language : Turkish
Default : No
Forced : No

Text #43
ID : 47
Format : PGS
Muxing mode : zlib
Codec ID : S_HDMV/PGS
Codec ID/Info : Picture based subtitle format used on BDs/HD-DVDs
Duration : 1 h 41 min
Bit rate : 18.8 kb/s
Frame rate : 0.273 FPS
Count of elements : 1666
Stream size : 13.7 MiB (0%)
Title : Ukrainian
Language : Ukrainian
Default : No
Forced : No

Text #44
ID : 48
Format : PGS
Muxing mode : zlib
Codec ID : S_HDMV/PGS
Codec ID/Info : Picture based subtitle format used on BDs/HD-DVDs
Duration : 1 h 43 min
Bit rate : 17.7 kb/s
Frame rate : 0.265 FPS
Count of elements : 1650
Stream size : 13.2 MiB (0%)
Title : Vietnamese
Language : Vietnamese
Default : No
Forced : No

Text #45
ID : 49
Format : PGS
Muxing mode : zlib
Codec ID : S_HDMV/PGS
Codec ID/Info : Picture based subtitle format used on BDs/HD-DVDs
Duration : 1 h 44 min
Bit rate : 53.8 kb/s
Frame rate : 0.476 FPS
Count of elements : 2986
Stream size : 40.2 MiB (1%)
Title : English (SDH) (Commentary #1)
Language : English
Default : No
Forced : No

Text #46
ID : 50
Format : PGS
Muxing mode : zlib
Codec ID : S_HDMV/PGS
Codec ID/Info : Picture based subtitle format used on BDs/HD-DVDs
Duration : 1 h 44 min
Bit rate : 44.2 kb/s
Frame rate : 0.446 FPS
Count of elements : 2794
Stream size : 33.0 MiB (1%)
Title : Danish (Commentary #1)
Language : Danish
Default : No
Forced : No

Text #47
ID : 51
Format : PGS
Muxing mode : zlib
Codec ID : S_HDMV/PGS
Codec ID/Info : Picture based subtitle format used on BDs/HD-DVDs
Duration : 1 h 44 min
Bit rate : 42.3 kb/s
Frame rate : 0.446 FPS
Count of elements : 2796
Stream size : 31.6 MiB (1%)
Title : Dutch (Commentary #1)
Language : Dutch
Default : No
Forced : No

Text #48
ID : 52
Format : PGS
Muxing mode : zlib
Codec ID : S_HDMV/PGS
Codec ID/Info : Picture based subtitle format used on BDs/HD-DVDs
Duration : 1 h 44 min
Bit rate : 41.8 kb/s
Frame rate : 0.447 FPS
Count of elements : 2804
Stream size : 31.2 MiB (1%)
Title : French (Commentary #1)
Language : French
Default : No
Forced : No

Text #49
ID : 53
Format : PGS
Muxing mode : zlib
Codec ID : S_HDMV/PGS
Codec ID/Info : Picture based subtitle format used on BDs/HD-DVDs
Duration : 1 h 44 min
Bit rate : 49.7 kb/s
Frame rate : 0.447 FPS
Count of elements : 2800
Stream size : 37.1 MiB (1%)
Title : German (Commentary #1)
Language : German
Default : No
Forced : No

Text #50
ID : 54
Format : PGS
Muxing mode : zlib
Codec ID : S_HDMV/PGS
Codec ID/Info : Picture based subtitle format used on BDs/HD-DVDs
Duration : 1 h 44 min
Bit rate : 43.8 kb/s
Frame rate : 0.447 FPS
Count of elements : 2802
Stream size : 32.7 MiB (1%)
Title : Italian (Commentary #1)
Language : Italian
Default : No
Forced : No

Text #51
ID : 55
Format : PGS
Muxing mode : zlib
Codec ID : S_HDMV/PGS
Codec ID/Info : Picture based subtitle format used on BDs/HD-DVDs
Duration : 1 h 44 min
Bit rate : 44.7 kb/s
Frame rate : 0.447 FPS
Count of elements : 2804
Stream size : 33.4 MiB (1%)
Title : Portuguese (Brazilian) (Commentary #1)
Language : Portuguese
Default : No
Forced : No

Text #52
ID : 56
Format : PGS
Muxing mode : zlib
Codec ID : S_HDMV/PGS
Codec ID/Info : Picture based subtitle format used on BDs/HD-DVDs
Duration : 1 h 44 min
Bit rate : 47.7 kb/s
Frame rate : 0.447 FPS
Count of elements : 2802
Stream size : 35.7 MiB (1%)
Title : Spanish (Latin American) (Commentary #1)
Language : Spanish
Default : No
Forced : No

Text #53
ID : 57
Format : PGS
Muxing mode : zlib
Codec ID : S_HDMV/PGS
Codec ID/Info : Picture based subtitle format used on BDs/HD-DVDs
Duration : 1 h 44 min
Bit rate : 68.3 kb/s
Frame rate : 0.565 FPS
Count of elements : 3552
Stream size : 51.2 MiB (1%)
Title : English (SDH) (Commentary #2)
Language : English
Default : No
Forced : No

Text #54
ID : 58
Format : PGS
Muxing mode : zlib
Codec ID : S_HDMV/PGS
Codec ID/Info : Picture based subtitle format used on BDs/HD-DVDs
Duration : 1 h 44 min
Bit rate : 54.1 kb/s
Frame rate : 0.541 FPS
Count of elements : 3402
Stream size : 40.5 MiB (1%)
Title : Danish (Commentary #2)
Language : Danish
Default : No
Forced : No

Text #55
ID : 59
Format : PGS
Muxing mode : zlib
Codec ID : S_HDMV/PGS
Codec ID/Info : Picture based subtitle format used on BDs/HD-DVDs
Duration : 1 h 44 min
Bit rate : 53.8 kb/s
Frame rate : 0.534 FPS
Count of elements : 3356
Stream size : 40.3 MiB (1%)
Title : Dutch (Commentary #2)
Language : Dutch
Default : No
Forced : No

Text #56
ID : 60
Format : PGS
Muxing mode : zlib
Codec ID : S_HDMV/PGS
Codec ID/Info : Picture based subtitle format used on BDs/HD-DVDs
Duration : 1 h 44 min
Bit rate : 55.8 kb/s
Frame rate : 0.542 FPS
Count of elements : 3408
Stream size : 41.9 MiB (1%)
Title : French (Commentary #2)
Language : French
Default : No
Forced : No

Text #57
ID : 61
Format : PGS
Muxing mode : zlib
Codec ID : S_HDMV/PGS
Codec ID/Info : Picture based subtitle format used on BDs/HD-DVDs
Duration : 1 h 44 min
Bit rate : 57.9 kb/s
Frame rate : 0.541 FPS
Count of elements : 3402
Stream size : 43.4 MiB (1%)
Title : German (Commentary #2)
Language : German
Default : No
Forced : No

Text #58
ID : 62
Format : PGS
Muxing mode : zlib
Codec ID : S_HDMV/PGS
Codec ID/Info : Picture based subtitle format used on BDs/HD-DVDs
Duration : 1 h 44 min
Bit rate : 57.1 kb/s
Frame rate : 0.542 FPS
Count of elements : 3410
Stream size : 42.8 MiB (1%)
Title : Portuguese (Brazilian) (Commentary #2)
Language : Portuguese
Default : No
Forced : No

Text #59
ID : 63
Format : PGS
Muxing mode : zlib
Codec ID : S_HDMV/PGS
Codec ID/Info : Picture based subtitle format used on BDs/HD-DVDs
Duration : 1 h 44 min
Bit rate : 59.2 kb/s
Frame rate : 0.542 FPS
Count of elements : 3406
Stream size : 44.4 MiB (1%)
Title : Spanish (Latin American) (Commentary #2)
Language : Spanish
Default : No
Forced : No

Menu
00:00:00.000 : Chapter 1
00:05:24.407 : Chapter 2
00:09:17.974 : Chapter 3
00:14:19.067 : Chapter 4
00:18:07.545 : Chapter 5
00:20:03.786 : Chapter 6
00:22:38.148 : Chapter 7
00:25:17.016 : Chapter 8
00:29:42.656 : Chapter 9
00:33:38.266 : Chapter 10
00:38:29.098 : Chapter 11
00:41:12.595 : Chapter 12
00:45:19.008 : Chapter 13
00:48:50.177 : Chapter 14
00:52:56.632 : Chapter 15
00:57:30.280 : Chapter 16
00:59:26.730 : Chapter 17
01:01:30.145 : Chapter 18
01:05:03.608 : Chapter 19
01:06:20.268 : Chapter 20
01:09:34.962 : Chapter 21
01:11:15.688 : Chapter 22
01:15:44.123 : Chapter 23
01:18:29.205 : Chapter 24
01:23:09.276 : Chapter 25
01:27:50.390 : Chapter 26
01:33:00.366 : Chapter 27
01:37:08.948 : Chapter 28

Rise.of.the.Planet.of.the.Apes.2011.UHD.BluRay.2160p.DTS-HD.MA.5.1.DV.HEVC.HYBRID.REMUX-FraMeSToR

Files