Dawn of the Planet of the Apes 2014 UHD BluRay 1080p DDP 7 1 DoVi HDR x265-SM737

In the wake of a disaster that changed the world, the growing and genetically evolving apes find themselves at a critical point with the human race.

Year: 2014
Duration: 130 min
Release date: Friday 11th July 2014
Genre: Action, Drama, Sci-Fi, Thriller

Rating

8.3/10
(49963 Votes)

0

Your Rating

Stars:
Gary Oldman, Keri Russell, Andy Serkis, Kodi Smit-McPhee

https://www.imdb.com/title/tt2103281/

General
Unique ID : 284791791351191748440275526535685496710 (0xD640E7653270D6EFDE1F3A19CC1A5F86)
Complete name : Dawn.of.the.Planet.of.the.Apes.2014.UHD.BluRay.1080p.DDP.7.1.DoVi.HDR.x265-SM737.mkv
Format : Matroska
Format version : Version 4
File size : 6.60 GiB
Duration : 2 h 10 min
Overall bit rate : 7 241 kb/s
Frame rate : 23.976 FPS
Encoded date : 2024-06-20 15:52:15 UTC
Writing application : mkvmerge v82.0 ('I'm The President') 64-bit
Writing library : libebml v1.4.5 + libmatroska v1.7.1 / Lavf61.1.100

Video
ID : 1
Format : HEVC
Format/Info : High Efficiency Video Coding
Format profile : Main 10@L5.2@High
HDR format : Dolby Vision, Version 1.0, dvhe.08.10, BL+RPU, HDR10 compatible / SMPTE ST 2086, HDR10 compatible / SMPTE ST 2086, HDR10 compatible
Codec ID : V_MPEGH/ISO/HEVC
Duration : 2 h 10 min
Bit rate : 5 036 kb/s
Width : 1 920 pixels
Height : 1 038 pixels
Display aspect ratio : 1.85:1
Frame rate mode : Constant
Frame rate : 23.976 (24000/1001) FPS
Color space : YUV
Chroma subsampling : 4:2:0 (Type 2)
Bit depth : 10 bits
Bits/(Pixel*Frame) : 0.105
Stream size : 4.59 GiB (70%)
Writing library : x265 3.6+1-aa7f602f7:[Windows][GCC 13.2.0][64 bit] 10bit
Encoding settings : cpuid=1111039 / frame-threads=4 / numa-pools=16 / wpp / no-pmode / no-pme / no-psnr / no-ssim / log-level=2 / input-csp=1 / input-res=1920x1038 / interlace=0 / total-frames=0 / level-idc=52 / high-tier=1 / uhd-bd=0 / ref=6 / no-allow-non-conformance / repeat-headers / annexb / aud / no-eob / no-eos / hrd / info / hash=0 / temporal-layers=0 / open-gop / min-keyint=24 / keyint=240 / gop-lookahead=0 / bframes=8 / b-adapt=2 / b-pyramid / bframe-bias=0 / rc-lookahead=40 / lookahead-slices=4 / scenecut=40 / no-hist-scenecut / radl=0 / no-splice / no-intra-refresh / ctu=64 / min-cu-size=8 / rect / no-amp / max-tu-size=32 / tu-inter-depth=1 / tu-intra-depth=1 / limit-tu=0 / rdoq-level=2 / dynamic-rd=0.00 / no-ssim-rd / signhide / no-tskip / nr-intra=0 / nr-inter=0 / no-constrained-intra / strong-intra-smoothing / max-merge=3 / limit-refs=3 / limit-modes / me=3 / subme=3 / merange=57 / temporal-mvp / no-frame-dup / no-hme / no-weightp / no-weightb / no-analyze-src-pics / deblock=-3:-3 / no-sao / no-sao-non-deblock / rd=4 / selective-sao=0 / no-early-skip / rskip / no-fast-intra / no-tskip-fast / no-cu-lossless / no-b-intra / no-splitrd-skip / rdpenalty=0 / psy-rd=2.00 / psy-rdoq=1.00 / no-rd-refine / no-lossless / cbqpoffs=0 / crqpoffs=0 / rc=abr / bitrate=5000 / qcomp=0.60 / qpstep=4 / stats-write=0 / stats-read=2 / cplxblur=20.0 / qblur=0.5 / vbv-maxrate=240000 / vbv-bufsize=240000 / vbv-init=0.9 / min-vbv-fullness=50.0 / max-vbv-fullness=80.0 / ipratio=1.40 / pbratio=1.30 / aq-mode=4 / aq-strength=1.00 / cutree / zone-count=0 / no-strict-cbr / qg-size=32 / no-rc-grain / qpmax=69 / qpmin=0 / no-const-vbv / sar=1 / overscan=0 / videoformat=5 / range=0 / colorprim=9 / transfer=16 / colormatrix=9 / chromaloc=1 / chromaloc-top=2 / chromaloc-bottom=2 / display-window=0 / master-display=G(13250,34500)B(7500,3000)R(34000,16000)WP(15635,16450)L(10000000,0) / cll=0,0 / min-luma=0 / max-luma=1023 / log2-max-poc-lsb=8 / vui-timing-info / vui-hrd-info / slices=1 / no-opt-qp-pps / no-opt-ref-list-length-pps / no-multi-pass-opt-rps / scenecut-bias=0.05 / no-opt-cu-delta-qp / no-aq-motion / hdr10 / hdr10-opt / no-dhdr10-opt / no-idr-recovery-sei / analysis-reuse-level=0 / analysis-save-reuse-level=0 / analysis-load-reuse-level=0 / scale-factor=0 / refine-intra=0 / refine-inter=0 / refine-mv=1 / refine-ctu-distortion=0 / no-limit-sao / ctu-info=0 / no-lowpass-dct / refine-analysis-type=0 / copy-pic=1 / max-ausize-factor=1.0 / no-dynamic-refine / no-single-sei / no-hevc-aq / no-svt / no-field / qp-adaptation-range=1.00 / scenecut-aware-qp=0conformance-window-offsets / right=0 / bottom=0 / decoder-max-rate=0 / no-vbv-live-multi-pass / no-mcstf / no-sbrc
Default : Yes
Forced : No
Color range : Limited
Color primaries : BT.2020
Transfer characteristics : PQ
Matrix coefficients : BT.2020 non-constant
Mastering display color primaries : Display P3
Mastering display luminance : min: 0.0000 cd/m2, max: 1000 cd/m2

Audio #1
ID : 2
Format : E-AC-3
Format/Info : Enhanced AC-3
Commercial name : Dolby Digital Plus
Format profile : Blu-ray Disc
Codec ID : A_EAC3
Duration : 2 h 10 min
Bit rate mode : Constant
Bit rate : 1 536 kb/s
Channel(s) : 8 channels
Channel layout : L R C LFE Ls Rs Lb Rb
Sampling rate : 48.0 kHz
Frame rate : 31.250 FPS (1536 SPF)
Compression mode : Lossy
Stream size : 1.40 GiB (21%)
Title : Surround
Language : English
Service kind : Complete Main
Default : Yes
Forced : No

Audio #2
ID : 3
Format : AC-3
Format/Info : Audio Coding 3
Commercial name : Dolby Digital
Codec ID : A_AC3
Duration : 2 h 10 min
Bit rate mode : Constant
Bit rate : 224 kb/s
Channel(s) : 2 channels
Channel layout : L R
Sampling rate : 48.0 kHz
Frame rate : 31.250 FPS (1536 SPF)
Compression mode : Lossy
Stream size : 209 MiB (3%)
Title : Commentary by Director Matt Reeves
Language : English
Service kind : Complete Main
Default : No
Forced : No

Text #1
ID : 4
Format : PGS
Muxing mode : zlib
Codec ID : S_HDMV/PGS
Codec ID/Info : Picture based subtitle format used on BDs/HD-DVDs
Duration : 1 h 58 min
Bit rate : 22.9 kb/s
Frame rate : 0.359 FPS
Count of elements : 2562
Stream size : 19.5 MiB (0%)
Title : English (SDH)
Language : English
Default : Yes
Forced : No

Text #2
ID : 5
Format : PGS
Muxing mode : zlib
Codec ID : S_HDMV/PGS
Codec ID/Info : Picture based subtitle format used on BDs/HD-DVDs
Duration : 1 h 57 min
Bit rate : 14.7 kb/s
Frame rate : 0.245 FPS
Count of elements : 1726
Stream size : 12.4 MiB (0%)
Title : English
Language : English
Default : No
Forced : No

Text #3
ID : 6
Format : UTF-8
Codec ID : S_TEXT/UTF8
Codec ID/Info : UTF-8 Plain Text
Duration : 1 h 58 min
Bit rate : 24 b/s
Frame rate : 0.128 FPS
Count of elements : 912
Stream size : 21.5 KiB (0%)
Title : English-SRT
Language : English
Default : No
Forced : No

Text #4
ID : 7
Format : UTF-8
Codec ID : S_TEXT/UTF8
Codec ID/Info : UTF-8 Plain Text
Duration : 1 h 40 min
Bit rate : 3 b/s
Frame rate : 0.021 FPS
Count of elements : 127
Stream size : 2.71 KiB (0%)
Title : English-SRT
Language : English
Default : No
Forced : No

Text #5
ID : 8
Format : UTF-8
Codec ID : S_TEXT/UTF8
Codec ID/Info : UTF-8 Plain Text
Duration : 1 h 58 min
Bit rate : 32 b/s
Frame rate : 0.180 FPS
Count of elements : 1281
Stream size : 28.1 KiB (0%)
Title : English-SRT-SDH
Language : English
Default : No
Forced : No

Text #6
ID : 9
Format : PGS
Muxing mode : zlib
Codec ID : S_HDMV/PGS
Codec ID/Info : Picture based subtitle format used on BDs/HD-DVDs
Duration : 2 h 9 min
Bit rate : 7 106 b/s
Frame rate : 0.225 FPS
Count of elements : 1750
Stream size : 6.58 MiB (0%)
Title : Arabic
Language : Arabic
Default : No
Forced : No

Text #7
ID : 10
Format : PGS
Muxing mode : zlib
Codec ID : S_HDMV/PGS
Codec ID/Info : Picture based subtitle format used on BDs/HD-DVDs
Duration : 2 h 9 min
Bit rate : 13.1 kb/s
Frame rate : 0.226 FPS
Count of elements : 1754
Stream size : 12.1 MiB (0%)
Title : Bulgarian
Language : Bulgarian
Default : No
Forced : No

Text #8
ID : 11
Format : PGS
Muxing mode : zlib
Codec ID : S_HDMV/PGS
Codec ID/Info : Picture based subtitle format used on BDs/HD-DVDs
Duration : 2 h 9 min
Bit rate : 11.0 kb/s
Frame rate : 0.227 FPS
Count of elements : 1764
Stream size : 10.2 MiB (0%)
Title : Chinese (Cantonese)
Language : Chinese
Default : No
Forced : No

Text #9
ID : 12
Format : PGS
Muxing mode : zlib
Codec ID : S_HDMV/PGS
Codec ID/Info : Picture based subtitle format used on BDs/HD-DVDs
Duration : 2 h 9 min
Bit rate : 11.0 kb/s
Frame rate : 0.235 FPS
Count of elements : 1825
Stream size : 10.2 MiB (0%)
Title : Chinese (Mandarin Traditional)
Language : Chinese
Default : No
Forced : No

Text #10
ID : 13
Format : PGS
Muxing mode : zlib
Codec ID : S_HDMV/PGS
Codec ID/Info : Picture based subtitle format used on BDs/HD-DVDs
Duration : 2 h 9 min
Bit rate : 12.3 kb/s
Frame rate : 0.225 FPS
Count of elements : 1750
Stream size : 11.4 MiB (0%)
Title : Czech
Language : Czech
Default : No
Forced : No

Text #11
ID : 14
Format : PGS
Muxing mode : zlib
Codec ID : S_HDMV/PGS
Codec ID/Info : Picture based subtitle format used on BDs/HD-DVDs
Duration : 2 h 9 min
Bit rate : 13.1 kb/s
Frame rate : 0.225 FPS
Count of elements : 1744
Stream size : 12.1 MiB (0%)
Title : Croatian
Language : Croatian
Default : No
Forced : No

Text #12
ID : 15
Format : PGS
Muxing mode : zlib
Codec ID : S_HDMV/PGS
Codec ID/Info : Picture based subtitle format used on BDs/HD-DVDs
Duration : 2 h 9 min
Bit rate : 13.2 kb/s
Frame rate : 0.209 FPS
Count of elements : 1626
Stream size : 12.2 MiB (0%)
Title : Danish
Language : Danish
Default : No
Forced : No

Text #13
ID : 16
Format : PGS
Muxing mode : zlib
Codec ID : S_HDMV/PGS
Codec ID/Info : Picture based subtitle format used on BDs/HD-DVDs
Duration : 2 h 9 min
Bit rate : 12.1 kb/s
Frame rate : 0.197 FPS
Count of elements : 1532
Stream size : 11.2 MiB (0%)
Title : Dutch
Language : Dutch
Default : No
Forced : No

Text #14
ID : 17
Format : PGS
Muxing mode : zlib
Codec ID : S_HDMV/PGS
Codec ID/Info : Picture based subtitle format used on BDs/HD-DVDs
Duration : 2 h 9 min
Bit rate : 12.8 kb/s
Frame rate : 0.221 FPS
Count of elements : 1718
Stream size : 11.8 MiB (0%)
Title : Estonian
Language : Estonian
Default : No
Forced : No

Text #15
ID : 18
Format : PGS
Muxing mode : zlib
Codec ID : S_HDMV/PGS
Codec ID/Info : Picture based subtitle format used on BDs/HD-DVDs
Duration : 2 h 9 min
Bit rate : 12.3 kb/s
Frame rate : 0.217 FPS
Count of elements : 1688
Stream size : 11.4 MiB (0%)
Title : Finnish
Language : Finnish
Default : No
Forced : No

Text #16
ID : 19
Format : PGS
Muxing mode : zlib
Codec ID : S_HDMV/PGS
Codec ID/Info : Picture based subtitle format used on BDs/HD-DVDs
Duration : 2 h 9 min
Bit rate : 11.7 kb/s
Frame rate : 0.203 FPS
Count of elements : 1574
Stream size : 10.8 MiB (0%)
Title : French
Language : French
Default : No
Forced : No

Text #17
ID : 20
Format : PGS
Muxing mode : zlib
Codec ID : S_HDMV/PGS
Codec ID/Info : Picture based subtitle format used on BDs/HD-DVDs
Duration : 2 h 9 min
Bit rate : 14.8 kb/s
Frame rate : 0.219 FPS
Count of elements : 1704
Stream size : 13.7 MiB (0%)
Title : German
Language : German
Default : No
Forced : No

Text #18
ID : 21
Format : PGS
Muxing mode : zlib
Codec ID : S_HDMV/PGS
Codec ID/Info : Picture based subtitle format used on BDs/HD-DVDs
Duration : 2 h 9 min
Bit rate : 14.0 kb/s
Frame rate : 0.197 FPS
Count of elements : 1532
Stream size : 12.9 MiB (0%)
Title : Greek
Language : Greek
Default : No
Forced : No

Text #19
ID : 22
Format : PGS
Muxing mode : zlib
Codec ID : S_HDMV/PGS
Codec ID/Info : Picture based subtitle format used on BDs/HD-DVDs
Duration : 2 h 9 min
Bit rate : 9 308 b/s
Frame rate : 0.225 FPS
Count of elements : 1746
Stream size : 8.61 MiB (0%)
Title : Hebrew
Language : Hebrew
Default : No
Forced : No

Text #20
ID : 23
Format : PGS
Muxing mode : zlib
Codec ID : S_HDMV/PGS
Codec ID/Info : Picture based subtitle format used on BDs/HD-DVDs
Duration : 2 h 9 min
Bit rate : 11.2 kb/s
Frame rate : 0.226 FPS
Count of elements : 1755
Stream size : 10.4 MiB (0%)
Title : Hindi
Language : Hindi
Default : No
Forced : No

Text #21
ID : 24
Format : PGS
Muxing mode : zlib
Codec ID : S_HDMV/PGS
Codec ID/Info : Picture based subtitle format used on BDs/HD-DVDs
Duration : 2 h 9 min
Bit rate : 12.4 kb/s
Frame rate : 0.184 FPS
Count of elements : 1426
Stream size : 11.5 MiB (0%)
Title : Hungarian
Language : Hungarian
Default : No
Forced : No

Text #22
ID : 25
Format : PGS
Muxing mode : zlib
Codec ID : S_HDMV/PGS
Codec ID/Info : Picture based subtitle format used on BDs/HD-DVDs
Duration : 2 h 9 min
Bit rate : 12.8 kb/s
Frame rate : 0.219 FPS
Count of elements : 1700
Stream size : 11.8 MiB (0%)
Title : Icelandic
Language : Icelandic
Default : No
Forced : No

Text #23
ID : 26
Format : PGS
Muxing mode : zlib
Codec ID : S_HDMV/PGS
Codec ID/Info : Picture based subtitle format used on BDs/HD-DVDs
Duration : 2 h 9 min
Bit rate : 14.4 kb/s
Frame rate : 0.222 FPS
Count of elements : 1724
Stream size : 13.3 MiB (0%)
Title : Indonesian
Language : Indonesian
Default : No
Forced : No

Text #24
ID : 27
Format : PGS
Muxing mode : zlib
Codec ID : S_HDMV/PGS
Codec ID/Info : Picture based subtitle format used on BDs/HD-DVDs
Duration : 2 h 9 min
Bit rate : 13.4 kb/s
Frame rate : 0.226 FPS
Count of elements : 1754
Stream size : 12.4 MiB (0%)
Title : Italian
Language : Italian
Default : No
Forced : No

Text #25
ID : 28
Format : PGS
Muxing mode : zlib
Codec ID : S_HDMV/PGS
Codec ID/Info : Picture based subtitle format used on BDs/HD-DVDs
Duration : 2 h 9 min
Bit rate : 9 641 b/s
Frame rate : 0.197 FPS
Count of elements : 1526
Stream size : 8.91 MiB (0%)
Title : Japanese
Language : Japanese
Default : No
Forced : No

Text #26
ID : 29
Format : PGS
Muxing mode : zlib
Codec ID : S_HDMV/PGS
Codec ID/Info : Picture based subtitle format used on BDs/HD-DVDs
Duration : 2 h 9 min
Bit rate : 9 252 b/s
Frame rate : 0.223 FPS
Count of elements : 1731
Stream size : 8.56 MiB (0%)
Title : Korean
Language : Korean
Default : No
Forced : No

Text #27
ID : 30
Format : PGS
Muxing mode : zlib
Codec ID : S_HDMV/PGS
Codec ID/Info : Picture based subtitle format used on BDs/HD-DVDs
Duration : 2 h 9 min
Bit rate : 12.9 kb/s
Frame rate : 0.224 FPS
Count of elements : 1742
Stream size : 12.0 MiB (0%)
Title : Latvian
Language : Latvian
Default : No
Forced : No

Text #28
ID : 31
Format : PGS
Muxing mode : zlib
Codec ID : S_HDMV/PGS
Codec ID/Info : Picture based subtitle format used on BDs/HD-DVDs
Duration : 2 h 9 min
Bit rate : 12.4 kb/s
Frame rate : 0.222 FPS
Count of elements : 1724
Stream size : 11.5 MiB (0%)
Title : Lithuanian
Language : Lithuanian
Default : No
Forced : No

Text #29
ID : 32
Format : PGS
Muxing mode : zlib
Codec ID : S_HDMV/PGS
Codec ID/Info : Picture based subtitle format used on BDs/HD-DVDs
Duration : 2 h 9 min
Bit rate : 16.7 kb/s
Frame rate : 0.226 FPS
Count of elements : 1758
Stream size : 15.5 MiB (0%)
Title : Malay
Language : Malay
Default : No
Forced : No

Text #30
ID : 33
Format : PGS
Muxing mode : zlib
Codec ID : S_HDMV/PGS
Codec ID/Info : Picture based subtitle format used on BDs/HD-DVDs
Duration : 2 h 9 min
Bit rate : 13.3 kb/s
Frame rate : 0.225 FPS
Count of elements : 1746
Stream size : 12.3 MiB (0%)
Title : Norwegian
Language : Norwegian
Default : No
Forced : No

Text #31
ID : 34
Format : PGS
Muxing mode : zlib
Codec ID : S_HDMV/PGS
Codec ID/Info : Picture based subtitle format used on BDs/HD-DVDs
Duration : 2 h 9 min
Bit rate : 12.1 kb/s
Frame rate : 0.217 FPS
Count of elements : 1686
Stream size : 11.2 MiB (0%)
Title : Polish
Language : Polish
Default : No
Forced : No

Text #32
ID : 35
Format : PGS
Muxing mode : zlib
Codec ID : S_HDMV/PGS
Codec ID/Info : Picture based subtitle format used on BDs/HD-DVDs
Duration : 2 h 9 min
Bit rate : 12.2 kb/s
Frame rate : 0.219 FPS
Count of elements : 1698
Stream size : 11.3 MiB (0%)
Title : Portuguese (Brazilian)
Language : Portuguese
Default : No
Forced : No

Text #33
ID : 36
Format : PGS
Muxing mode : zlib
Codec ID : S_HDMV/PGS
Codec ID/Info : Picture based subtitle format used on BDs/HD-DVDs
Duration : 2 h 9 min
Bit rate : 14.2 kb/s
Frame rate : 0.226 FPS
Count of elements : 1754
Stream size : 13.2 MiB (0%)
Title : Portuguese (Iberian)
Language : Portuguese
Default : No
Forced : No

Text #34
ID : 37
Format : PGS
Muxing mode : zlib
Codec ID : S_HDMV/PGS
Codec ID/Info : Picture based subtitle format used on BDs/HD-DVDs
Duration : 2 h 9 min
Bit rate : 12.3 kb/s
Frame rate : 0.222 FPS
Count of elements : 1720
Stream size : 11.4 MiB (0%)
Title : Romanian
Language : Romanian
Default : No
Forced : No

Text #35
ID : 38
Format : PGS
Muxing mode : zlib
Codec ID : S_HDMV/PGS
Codec ID/Info : Picture based subtitle format used on BDs/HD-DVDs
Duration : 2 h 9 min
Bit rate : 13.1 kb/s
Frame rate : 0.226 FPS
Count of elements : 1752
Stream size : 12.2 MiB (0%)
Title : Russian
Language : Russian
Default : No
Forced : No

Text #36
ID : 39
Format : PGS
Muxing mode : zlib
Codec ID : S_HDMV/PGS
Codec ID/Info : Picture based subtitle format used on BDs/HD-DVDs
Duration : 2 h 9 min
Bit rate : 12.3 kb/s
Frame rate : 0.225 FPS
Count of elements : 1750
Stream size : 11.4 MiB (0%)
Title : Serbian
Language : Serbian
Default : No
Forced : No

Text #37
ID : 40
Format : PGS
Muxing mode : zlib
Codec ID : S_HDMV/PGS
Codec ID/Info : Picture based subtitle format used on BDs/HD-DVDs
Duration : 2 h 9 min
Bit rate : 12.0 kb/s
Frame rate : 0.222 FPS
Count of elements : 1722
Stream size : 11.1 MiB (0%)
Title : Slovak
Language : Slovak
Default : No
Forced : No

Text #38
ID : 41
Format : PGS
Muxing mode : zlib
Codec ID : S_HDMV/PGS
Codec ID/Info : Picture based subtitle format used on BDs/HD-DVDs
Duration : 2 h 9 min
Bit rate : 11.3 kb/s
Frame rate : 0.199 FPS
Count of elements : 1546
Stream size : 10.4 MiB (0%)
Title : Slovenian
Language : Slovenian
Default : No
Forced : No

Text #39
ID : 42
Format : PGS
Muxing mode : zlib
Codec ID : S_HDMV/PGS
Codec ID/Info : Picture based subtitle format used on BDs/HD-DVDs
Duration : 2 h 9 min
Bit rate : 13.7 kb/s
Frame rate : 0.223 FPS
Count of elements : 1728
Stream size : 12.7 MiB (0%)
Title : Spanish (Castilian)
Language : Spanish
Default : No
Forced : No

Text #40
ID : 43
Format : PGS
Muxing mode : zlib
Codec ID : S_HDMV/PGS
Codec ID/Info : Picture based subtitle format used on BDs/HD-DVDs
Duration : 2 h 9 min
Bit rate : 14.4 kb/s
Frame rate : 0.221 FPS
Count of elements : 1716
Stream size : 13.3 MiB (0%)
Title : Spanish (Latin American)
Language : Spanish
Default : No
Forced : No

Text #41
ID : 44
Format : PGS
Muxing mode : zlib
Codec ID : S_HDMV/PGS
Codec ID/Info : Picture based subtitle format used on BDs/HD-DVDs
Duration : 2 h 9 min
Bit rate : 13.5 kb/s
Frame rate : 0.225 FPS
Count of elements : 1750
Stream size : 12.5 MiB (0%)
Title : Swedish
Language : Swedish
Default : No
Forced : No

Text #42
ID : 45
Format : PGS
Muxing mode : zlib
Codec ID : S_HDMV/PGS
Codec ID/Info : Picture based subtitle format used on BDs/HD-DVDs
Duration : 2 h 9 min
Bit rate : 17.1 kb/s
Frame rate : 0.226 FPS
Count of elements : 1753
Stream size : 15.8 MiB (0%)
Title : Tamil
Language : Tamil
Default : No
Forced : No

Text #43
ID : 46
Format : PGS
Muxing mode : zlib
Codec ID : S_HDMV/PGS
Codec ID/Info : Picture based subtitle format used on BDs/HD-DVDs
Duration : 2 h 9 min
Bit rate : 13.3 kb/s
Frame rate : 0.226 FPS
Count of elements : 1753
Stream size : 12.3 MiB (0%)
Title : Telugu
Language : Telugu
Default : No
Forced : No

Text #44
ID : 47
Format : PGS
Muxing mode : zlib
Codec ID : S_HDMV/PGS
Codec ID/Info : Picture based subtitle format used on BDs/HD-DVDs
Duration : 2 h 9 min
Bit rate : 10.8 kb/s
Frame rate : 0.226 FPS
Count of elements : 1754
Stream size : 10.0 MiB (0%)
Title : Thai
Language : Thai
Default : No
Forced : No

Text #45
ID : 48
Format : PGS
Muxing mode : zlib
Codec ID : S_HDMV/PGS
Codec ID/Info : Picture based subtitle format used on BDs/HD-DVDs
Duration : 2 h 9 min
Bit rate : 14.1 kb/s
Frame rate : 0.226 FPS
Count of elements : 1752
Stream size : 13.1 MiB (0%)
Title : Turkish
Language : Turkish
Default : No
Forced : No

Text #46
ID : 49
Format : PGS
Muxing mode : zlib
Codec ID : S_HDMV/PGS
Codec ID/Info : Picture based subtitle format used on BDs/HD-DVDs
Duration : 2 h 9 min
Bit rate : 13.6 kb/s
Frame rate : 0.225 FPS
Count of elements : 1750
Stream size : 12.6 MiB (0%)
Title : Ukrainian
Language : Ukrainian
Default : No
Forced : No

Text #47
ID : 50
Format : PGS
Muxing mode : zlib
Codec ID : S_HDMV/PGS
Codec ID/Info : Picture based subtitle format used on BDs/HD-DVDs
Duration : 2 h 9 min
Bit rate : 14.4 kb/s
Frame rate : 0.226 FPS
Count of elements : 1752
Stream size : 13.4 MiB (0%)
Title : Vietnamese
Language : Vietnamese
Default : No
Forced : No

Text #48
ID : 51
Format : PGS
Muxing mode : zlib
Codec ID : S_HDMV/PGS
Codec ID/Info : Picture based subtitle format used on BDs/HD-DVDs
Duration : 2 h 1 min
Bit rate : 77.9 kb/s
Frame rate : 0.569 FPS
Count of elements : 4148
Stream size : 67.8 MiB (1%)
Title : English (Commentary)
Language : English
Default : No
Forced : No

Text #49
ID : 52
Format : PGS
Muxing mode : zlib
Codec ID : S_HDMV/PGS
Codec ID/Info : Picture based subtitle format used on BDs/HD-DVDs
Duration : 2 h 9 min
Bit rate : 58.3 kb/s
Frame rate : 0.520 FPS
Count of elements : 4054
Stream size : 54.1 MiB (1%)
Title : Danish (Commentary)
Language : Danish
Default : No
Forced : No

Text #50
ID : 53
Format : PGS
Muxing mode : zlib
Codec ID : S_HDMV/PGS
Codec ID/Info : Picture based subtitle format used on BDs/HD-DVDs
Duration : 2 h 9 min
Bit rate : 61.7 kb/s
Frame rate : 0.517 FPS
Count of elements : 4024
Stream size : 57.3 MiB (1%)
Title : Dutch (Commentary)
Language : Dutch
Default : No
Forced : No

Text #51
ID : 54
Format : PGS
Muxing mode : zlib
Codec ID : S_HDMV/PGS
Codec ID/Info : Picture based subtitle format used on BDs/HD-DVDs
Duration : 2 h 9 min
Bit rate : 61.6 kb/s
Frame rate : 0.520 FPS
Count of elements : 4054
Stream size : 57.2 MiB (1%)
Title : Finnish (Commentary)
Language : Finnish
Default : No
Forced : No

Text #52
ID : 55
Format : PGS
Muxing mode : zlib
Codec ID : S_HDMV/PGS
Codec ID/Info : Picture based subtitle format used on BDs/HD-DVDs
Duration : 2 h 9 min
Bit rate : 63.2 kb/s
Frame rate : 0.519 FPS
Count of elements : 4042
Stream size : 58.7 MiB (1%)
Title : French (Commentary)
Language : French
Default : No
Forced : No

Text #53
ID : 56
Format : PGS
Muxing mode : zlib
Codec ID : S_HDMV/PGS
Codec ID/Info : Picture based subtitle format used on BDs/HD-DVDs
Duration : 2 h 9 min
Bit rate : 67.0 kb/s
Frame rate : 0.520 FPS
Count of elements : 4052
Stream size : 62.2 MiB (1%)
Title : German (Commentary)
Language : German
Default : No
Forced : No

Text #54
ID : 57
Format : PGS
Muxing mode : zlib
Codec ID : S_HDMV/PGS
Codec ID/Info : Picture based subtitle format used on BDs/HD-DVDs
Duration : 2 h 9 min
Bit rate : 59.6 kb/s
Frame rate : 0.521 FPS
Count of elements : 4056
Stream size : 55.3 MiB (1%)
Title : Italian (Commentary)
Language : Italian
Default : No
Forced : No

Text #55
ID : 58
Format : PGS
Muxing mode : zlib
Codec ID : S_HDMV/PGS
Codec ID/Info : Picture based subtitle format used on BDs/HD-DVDs
Duration : 2 h 9 min
Bit rate : 38.6 kb/s
Frame rate : 0.380 FPS
Count of elements : 2960
Stream size : 35.9 MiB (1%)
Title : Japanese (Commentary)
Language : Japanese
Default : No
Forced : No

Text #56
ID : 59
Format : PGS
Muxing mode : zlib
Codec ID : S_HDMV/PGS
Codec ID/Info : Picture based subtitle format used on BDs/HD-DVDs
Duration : 2 h 9 min
Bit rate : 41.5 kb/s
Frame rate : 0.520 FPS
Count of elements : 4052
Stream size : 38.5 MiB (1%)
Title : Korean (Commentary)
Language : Korean
Default : No
Forced : No

Text #57
ID : 60
Format : PGS
Muxing mode : zlib
Codec ID : S_HDMV/PGS
Codec ID/Info : Picture based subtitle format used on BDs/HD-DVDs
Duration : 2 h 9 min
Bit rate : 61.8 kb/s
Frame rate : 0.520 FPS
Count of elements : 4054
Stream size : 57.3 MiB (1%)
Title : Norwegian (Commentary)
Language : Norwegian
Default : No
Forced : No

Text #58
ID : 61
Format : PGS
Muxing mode : zlib
Codec ID : S_HDMV/PGS
Codec ID/Info : Picture based subtitle format used on BDs/HD-DVDs
Duration : 2 h 9 min
Bit rate : 68.1 kb/s
Frame rate : 0.520 FPS
Count of elements : 4054
Stream size : 63.2 MiB (1%)
Title : Russian (Commentary)
Language : Russian
Default : No
Forced : No

Text #59
ID : 62
Format : PGS
Muxing mode : zlib
Codec ID : S_HDMV/PGS
Codec ID/Info : Picture based subtitle format used on BDs/HD-DVDs
Duration : 2 h 9 min
Bit rate : 62.9 kb/s
Frame rate : 0.521 FPS
Count of elements : 4056
Stream size : 58.4 MiB (1%)
Title : Spanish (Latin American) (Commentary)
Language : Spanish
Default : No
Forced : No

Text #60
ID : 63
Format : PGS
Muxing mode : zlib
Codec ID : S_HDMV/PGS
Codec ID/Info : Picture based subtitle format used on BDs/HD-DVDs
Duration : 2 h 9 min
Bit rate : 62.2 kb/s
Frame rate : 0.521 FPS
Count of elements : 4056
Stream size : 57.8 MiB (1%)
Title : Swedish (Commentary)
Language : Swedish
Default : No
Forced : No

Menu
00:00:00.000 : Chapter 1
00:03:21.159 : Chapter 2
00:07:34.913 : Chapter 3
00:12:36.547 : Chapter 4
00:16:23.566 : Chapter 5
00:18:47.043 : Chapter 6
00:21:52.478 : Chapter 7
00:25:26.692 : Chapter 8
00:29:45.867 : Chapter 9
00:31:50.617 : Chapter 10
00:36:43.743 : Chapter 11
00:39:07.554 : Chapter 12
00:40:57.163 : Chapter 13
00:44:12.233 : Chapter 14
00:48:11.138 : Chapter 15
00:50:31.529 : Chapter 16
00:53:48.016 : Chapter 17
00:57:25.317 : Chapter 18
01:01:18.466 : Chapter 19
01:02:35.377 : Chapter 20
01:04:24.069 : Chapter 21
01:06:21.728 : Chapter 22
01:09:31.334 : Chapter 23
01:13:56.974 : Chapter 24
01:17:17.925 : Chapter 25
01:20:53.390 : Chapter 26
01:23:28.754 : Chapter 27
01:26:08.997 : Chapter 28
01:28:19.252 : Chapter 29
01:33:24.390 : Chapter 30
01:35:53.122 : Chapter 31
01:38:38.621 : Chapter 32
01:40:42.537 : Chapter 33
01:44:07.533 : Chapter 34
01:46:05.317 : Chapter 35
01:47:54.468 : Chapter 36
01:52:13.769 : Chapter 37
01:56:27.481 : Chapter 38
02:00:31.015 : Chapter 39
02:01:35.038 : Chapter 40

Dawn.of.the.Planet.of.the.Apes.2014.UHD.BluRay.2160p.DTS-HD.MA.7.1.DV.HEVC.HYBRID.REMUX-FraMeSToR

Files