Legally Blonde 2001 SHOUT Remastered 1080p BluRay DDP 5 1 x265-SM737

When a blonde sorority queen is dumped by her boyfriend, she decides to follow him to law school to get him back and, once there, learns she has more legal savvy than she ever imagined.

Year: 2001
Duration: 96 min
Release date: Friday 13th July 2001
Genre: Comedy

Rating

6.2/10
(46737 Votes)

0

Your Rating

Stars:
Reese Witherspoon, Luke Wilson, Selma Blair, Matthew Davis

https://www.imdb.com/title/tt0250494/

General
Unique ID : 225752290018388890203698225150251146736 (0xA9D64F3DC103AD708A06F4ADAE829DF0)
Complete name : Legally.Blonde.2001.SHOUT.Remastered.1080p.BluRay.DDP.5.1.x265-SM737.mkv
Format : Matroska
Format version : Version 4
File size : 3.38 GiB
Duration : 1 h 36 min
Overall bit rate : 5 038 kb/s
Encoded date : UTC 2024-06-24 14:48:24
Writing application : mkvmerge v85.0 ('Shame For You') 64-bit
Writing library : libebml v1.4.5 + libmatroska v1.7.1 / Lavf60.16.100

Video
ID : 1
Format : HEVC
Format/Info : High Efficiency Video Coding
Format profile : Main 10@L4.1@Main
Codec ID : V_MPEGH/ISO/HEVC
Duration : 1 h 36 min
Bit rate : 3 492 kb/s
Width : 1 920 pixels
Height : 804 pixels
Display aspect ratio : 2.40:1
Frame rate mode : Constant
Frame rate : 23.976 (24000/1001) FPS
Color space : YUV
Chroma subsampling : 4:2:0 (Type 0)
Bit depth : 10 bits
Bits/(Pixel*Frame) : 0.094
Stream size : 2.34 GiB (69%)
Writing library : x265 3.5+1-f0c1022b6:[Linux][GCC 13.2.0][64 bit] 10bit
Encoding settings : cpuid=1111039 / frame-threads=3 / wpp / no-pmode / no-pme / no-psnr / no-ssim / log-level=2 / input-csp=1 / input-res=1920x804 / interlace=0 / total-frames=0 / level-idc=41 / high-tier=1 / uhd-bd=0 / ref=4 / no-allow-non-conformance / no-repeat-headers / annexb / no-aud / no-eob / no-eos / no-hrd / info / hash=0 / temporal-layers=0 / open-gop / min-keyint=24 / keyint=240 / gop-lookahead=0 / bframes=8 / b-adapt=2 / b-pyramid / bframe-bias=0 / rc-lookahead=25 / lookahead-slices=4 / scenecut=40 / no-hist-scenecut / radl=0 / no-splice / no-intra-refresh / ctu=64 / min-cu-size=8 / rect / no-amp / max-tu-size=32 / tu-inter-depth=1 / tu-intra-depth=1 / limit-tu=0 / rdoq-level=2 / dynamic-rd=0.00 / no-ssim-rd / signhide / no-tskip / nr-intra=0 / nr-inter=0 / no-constrained-intra / strong-intra-smoothing / max-merge=3 / limit-refs=3 / limit-modes / me=3 / subme=3 / merange=57 / temporal-mvp / no-frame-dup / no-hme / no-weightp / no-weightb / no-analyze-src-pics / deblock=-3:-3 / no-sao / no-sao-non-deblock / rd=4 / selective-sao=0 / no-early-skip / rskip / no-fast-intra / no-tskip-fast / no-cu-lossless / no-b-intra / no-splitrd-skip / rdpenalty=0 / psy-rd=2.00 / psy-rdoq=1.00 / no-rd-refine / no-lossless / cbqpoffs=0 / crqpoffs=0 / rc=abr / bitrate=3500 / qcomp=0.60 / qpstep=4 / stats-write=0 / stats-read=2 / cplxblur=20.0 / qblur=0.5 / ipratio=1.40 / pbratio=1.30 / aq-mode=4 / aq-strength=1.00 / cutree / zone-count=0 / no-strict-cbr / qg-size=32 / no-rc-grain / qpmax=69 / qpmin=0 / no-const-vbv / sar=1 / overscan=0 / videoformat=5 / range=0 / colorprim=1 / transfer=1 / colormatrix=1 / chromaloc=1 / chromaloc-top=0 / chromaloc-bottom=0 / display-window=0 / cll=0,0 / min-luma=0 / max-luma=1023 / log2-max-poc-lsb=8 / vui-timing-info / vui-hrd-info / slices=1 / no-opt-qp-pps / no-opt-ref-list-length-pps / no-multi-pass-opt-rps / scenecut-bias=0.05 / no-opt-cu-delta-qp / no-aq-motion / no-hdr10 / no-hdr10-opt / no-dhdr10-opt / no-idr-recovery-sei / analysis-reuse-level=0 / analysis-save-reuse-level=0 / analysis-load-reuse-level=0 / scale-factor=0 / refine-intra=0 / refine-inter=0 / refine-mv=1 / refine-ctu-distortion=0 / no-limit-sao / ctu-info=0 / no-lowpass-dct / refine-analysis-type=0 / copy-pic=1 / max-ausize-factor=1.0 / no-dynamic-refine / no-single-sei / no-hevc-aq / no-svt / no-field / qp-adaptation-range=1.00 / scenecut-aware-qp=0conformance-window-offsets / right=0 / bottom=0 / decoder-max-rate=0 / no-vbv-live-multi-pass / no-mcstf / no-sbrc
Default : Yes
Forced : No
Color range : Limited
Color primaries : BT.709
Transfer characteristics : BT.709
Matrix coefficients : BT.709

Audio #1
ID : 2
Format : E-AC-3
Format/Info : Enhanced AC-3
Commercial name : Dolby Digital Plus
Codec ID : A_EAC3
Duration : 1 h 36 min
Bit rate mode : Constant
Bit rate : 768 kb/s
Channel(s) : 6 channels
Channel layout : L R C LFE Ls Rs
Sampling rate : 48.0 kHz
Frame rate : 31.250 FPS (1536 SPF)
Compression mode : Lossy
Stream size : 527 MiB (15%)
Title : Surround
Language : English
Service kind : Complete Main
Default : Yes
Forced : No

Audio #2
ID : 3
Format : AC-3
Format/Info : Audio Coding 3
Commercial name : Dolby Digital
Codec ID : A_AC3
Duration : 1 h 36 min
Bit rate mode : Constant
Bit rate : 256 kb/s
Channel(s) : 2 channels
Channel layout : L R
Sampling rate : 48.0 kHz
Frame rate : 31.250 FPS (1536 SPF)
Compression mode : Lossy
Stream size : 176 MiB (5%)
Title : Commentary by director Robert Luketic, producer Mark Platt, and star Reese Witherspoon
Language : English
Service kind : Complete Main
Default : No
Forced : No

Audio #3
ID : 4
Format : AC-3
Format/Info : Audio Coding 3
Commercial name : Dolby Digital
Codec ID : A_AC3
Duration : 1 h 36 min
Bit rate mode : Constant
Bit rate : 256 kb/s
Channel(s) : 2 channels
Channel layout : L R
Sampling rate : 48.0 kHz
Frame rate : 31.250 FPS (1536 SPF)
Compression mode : Lossy
Stream size : 176 MiB (5%)
Title : Commentary by crew members
Language : English
Service kind : Complete Main
Default : No
Forced : No

Text #1
ID : 5
Format : ASS
Codec ID : S_TEXT/ASS
Codec ID/Info : Advanced Sub Station Alpha
Duration : 1 h 29 min
Bit rate : 111 b/s
Count of elements : 1250
Compression mode : Lossless
Stream size : 72.9 KiB (0%)
Language : English
Default : No
Forced : No

Text #2
ID : 6
Format : ASS
Codec ID : S_TEXT/ASS
Codec ID/Info : Advanced Sub Station Alpha
Duration : 1 h 33 min
Bit rate : 118 b/s
Count of elements : 1405
Compression mode : Lossless
Stream size : 81.5 KiB (0%)
Title : SDH
Language : English
Default : No
Forced : No

Text #3
ID : 7
Format : PGS
Muxing mode : zlib
Codec ID : S_HDMV/PGS
Codec ID/Info : Picture based subtitle format used on BDs/HD-DVDs
Duration : 1 h 33 min
Bit rate : 48.5 kb/s
Count of elements : 2810
Stream size : 32.5 MiB (1%)
Title : SDH / PGS
Language : English
Default : Yes
Forced : No

Text #4
ID : 8
Format : ASS
Codec ID : S_TEXT/ASS
Codec ID/Info : Advanced Sub Station Alpha
Duration : 1 h 31 min
Bit rate : 147 b/s
Count of elements : 1292
Compression mode : Lossless
Stream size : 98.2 KiB (0%)
Language : Arabic
Default : No
Forced : No

Text #5
ID : 9
Format : VobSub
Muxing mode : zlib
Codec ID : S_VOBSUB
Codec ID/Info : Picture based subtitle format used on DVDs
Duration : 1 h 34 min
Bit rate : 5 742 b/s
Count of elements : 1140
Stream size : 3.88 MiB (0%)
Language : Czech
Default : No
Forced : No

Text #6
ID : 10
Format : PGS
Muxing mode : zlib
Codec ID : S_HDMV/PGS
Codec ID/Info : Picture based subtitle format used on BDs/HD-DVDs
Duration : 1 h 34 min
Bit rate : 41.0 kb/s
Count of elements : 2528
Stream size : 27.8 MiB (1%)
Language : Danish
Default : No
Forced : No

Text #7
ID : 11
Format : PGS
Muxing mode : zlib
Codec ID : S_HDMV/PGS
Codec ID/Info : Picture based subtitle format used on BDs/HD-DVDs
Duration : 1 h 34 min
Bit rate : 41.4 kb/s
Count of elements : 2504
Stream size : 28.0 MiB (1%)
Language : German
Default : No
Forced : No

Text #8
ID : 12
Format : PGS
Muxing mode : zlib
Codec ID : S_HDMV/PGS
Codec ID/Info : Picture based subtitle format used on BDs/HD-DVDs
Duration : 1 h 31 min
Bit rate : 41.5 kb/s
Count of elements : 2544
Stream size : 27.1 MiB (1%)
Title : Latin American
Language : Spanish
Default : No
Forced : No

Text #9
ID : 13
Format : PGS
Muxing mode : zlib
Codec ID : S_HDMV/PGS
Codec ID/Info : Picture based subtitle format used on BDs/HD-DVDs
Duration : 1 h 34 min
Bit rate : 42.6 kb/s
Count of elements : 2462
Stream size : 28.8 MiB (1%)
Title : Castilian
Language : Spanish
Default : No
Forced : No

Text #10
ID : 14
Format : PGS
Muxing mode : zlib
Codec ID : S_HDMV/PGS
Codec ID/Info : Picture based subtitle format used on BDs/HD-DVDs
Duration : 1 h 34 min
Bit rate : 41.7 kb/s
Count of elements : 2516
Stream size : 28.2 MiB (1%)
Language : Finnish
Default : No
Forced : No

Text #11
ID : 15
Format : ASS
Codec ID : S_TEXT/ASS
Codec ID/Info : Advanced Sub Station Alpha
Duration : 1 h 34 min
Bit rate : 112 b/s
Count of elements : 1365
Compression mode : Lossless
Stream size : 77.9 KiB (0%)
Default : No
Forced : No

Text #12
ID : 16
Format : PGS
Muxing mode : zlib
Codec ID : S_HDMV/PGS
Codec ID/Info : Picture based subtitle format used on BDs/HD-DVDs
Duration : 1 h 34 min
Bit rate : 41.2 kb/s
Count of elements : 2338
Stream size : 27.9 MiB (1%)
Title : Parisian
Language : French
Default : No
Forced : No

Text #13
ID : 17
Format : VobSub
Muxing mode : zlib
Codec ID : S_VOBSUB
Codec ID/Info : Picture based subtitle format used on DVDs
Duration : 1 h 34 min
Bit rate : 4 957 b/s
Count of elements : 1144
Stream size : 3.35 MiB (0%)
Language : Hebrew
Default : No
Forced : No

Text #14
ID : 18
Format : VobSub
Muxing mode : zlib
Codec ID : S_VOBSUB
Codec ID/Info : Picture based subtitle format used on DVDs
Duration : 1 h 34 min
Bit rate : 5 482 b/s
Count of elements : 1139
Stream size : 3.70 MiB (0%)
Language : Croatian
Default : No
Forced : No

Text #15
ID : 19
Format : ASS
Codec ID : S_TEXT/ASS
Codec ID/Info : Advanced Sub Station Alpha
Duration : 1 h 34 min
Bit rate : 94 b/s
Count of elements : 1141
Compression mode : Lossless
Stream size : 65.2 KiB (0%)
Language : Hungarian
Default : No
Forced : No

Text #16
ID : 20
Format : ASS
Codec ID : S_TEXT/ASS
Codec ID/Info : Advanced Sub Station Alpha
Duration : 1 h 32 min
Bit rate : 102 b/s
Count of elements : 1163
Compression mode : Lossless
Stream size : 69.5 KiB (0%)
Language : Indonesian
Default : No
Forced : No

Text #17
ID : 21
Format : PGS
Muxing mode : zlib
Codec ID : S_HDMV/PGS
Codec ID/Info : Picture based subtitle format used on BDs/HD-DVDs
Duration : 1 h 30 min
Bit rate : 40.4 kb/s
Count of elements : 2464
Stream size : 26.1 MiB (1%)
Language : Italian
Default : No
Forced : No

Text #18
ID : 22
Format : PGS
Muxing mode : zlib
Codec ID : S_HDMV/PGS
Codec ID/Info : Picture based subtitle format used on BDs/HD-DVDs
Duration : 1 h 31 min
Bit rate : 24.7 kb/s
Count of elements : 2432
Stream size : 16.1 MiB (0%)
Language : Japanese
Default : No
Forced : No

Text #19
ID : 23
Format : PGS
Muxing mode : zlib
Codec ID : S_HDMV/PGS
Codec ID/Info : Picture based subtitle format used on BDs/HD-DVDs
Duration : 1 h 31 min
Bit rate : 27.5 kb/s
Count of elements : 2328
Stream size : 18.0 MiB (1%)
Language : Korean
Default : No
Forced : No

Text #20
ID : 24
Format : PGS
Muxing mode : zlib
Codec ID : S_HDMV/PGS
Codec ID/Info : Picture based subtitle format used on BDs/HD-DVDs
Duration : 1 h 34 min
Bit rate : 43.0 kb/s
Count of elements : 2350
Stream size : 29.1 MiB (1%)
Language : Norwegian Bokmal
Default : No
Forced : No

Text #21
ID : 25
Format : PGS
Muxing mode : zlib
Codec ID : S_HDMV/PGS
Codec ID/Info : Picture based subtitle format used on BDs/HD-DVDs
Duration : 1 h 32 min
Bit rate : 39.8 kb/s
Count of elements : 1940
Stream size : 26.4 MiB (1%)
Language : Dutch
Default : No
Forced : No

Text #22
ID : 26
Format : ASS
Codec ID : S_TEXT/ASS
Codec ID/Info : Advanced Sub Station Alpha
Duration : 1 h 34 min
Bit rate : 97 b/s
Count of elements : 1123
Compression mode : Lossless
Stream size : 67.7 KiB (0%)
Language : Polish
Default : No
Forced : No

Text #23
ID : 27
Format : PGS
Muxing mode : zlib
Codec ID : S_HDMV/PGS
Codec ID/Info : Picture based subtitle format used on BDs/HD-DVDs
Duration : 1 h 30 min
Bit rate : 41.1 kb/s
Count of elements : 2294
Stream size : 26.6 MiB (1%)
Title : Brazilian
Language : Portuguese
Default : No
Forced : No

Text #24
ID : 28
Format : ASS
Codec ID : S_TEXT/ASS
Codec ID/Info : Advanced Sub Station Alpha
Duration : 1 h 30 min
Bit rate : 106 b/s
Count of elements : 1138
Compression mode : Lossless
Stream size : 70.8 KiB (0%)
Title : Iberian
Language : Portuguese
Default : No
Forced : No

Text #25
ID : 29
Format : PGS
Muxing mode : zlib
Codec ID : S_HDMV/PGS
Codec ID/Info : Picture based subtitle format used on BDs/HD-DVDs
Duration : 1 h 28 min
Bit rate : 42.3 kb/s
Count of elements : 2488
Stream size : 26.8 MiB (1%)
Language : Russian
Default : No
Forced : No

Text #26
ID : 30
Format : VobSub
Muxing mode : zlib
Codec ID : S_VOBSUB
Codec ID/Info : Picture based subtitle format used on DVDs
Duration : 1 h 34 min
Bit rate : 5 306 b/s
Count of elements : 1139
Stream size : 3.58 MiB (0%)
Language : Slovenian
Default : No
Forced : No

Text #27
ID : 31
Format : PGS
Muxing mode : zlib
Codec ID : S_HDMV/PGS
Codec ID/Info : Picture based subtitle format used on BDs/HD-DVDs
Duration : 1 h 34 min
Bit rate : 39.6 kb/s
Count of elements : 2514
Stream size : 26.8 MiB (1%)
Language : Swedish
Default : No
Forced : No

Text #28
ID : 32
Format : PGS
Muxing mode : zlib
Codec ID : S_HDMV/PGS
Codec ID/Info : Picture based subtitle format used on BDs/HD-DVDs
Duration : 1 h 31 min
Bit rate : 46.7 kb/s
Count of elements : 2412
Stream size : 30.4 MiB (1%)
Language : Thai
Default : No
Forced : No

Text #29
ID : 33
Format : PGS
Muxing mode : zlib
Codec ID : S_HDMV/PGS
Codec ID/Info : Picture based subtitle format used on BDs/HD-DVDs
Duration : 1 h 31 min
Bit rate : 34.1 kb/s
Count of elements : 2420
Stream size : 22.2 MiB (1%)
Title : Mandarin (Traditional)
Language : Chinese
Default : No
Forced : No

Text #30
ID : 34
Format : PGS
Muxing mode : zlib
Codec ID : S_HDMV/PGS
Codec ID/Info : Picture based subtitle format used on BDs/HD-DVDs
Duration : 1 h 31 min
Bit rate : 39.3 kb/s
Count of elements : 2420
Stream size : 25.7 MiB (1%)
Title : Cantonese (Traditional)
Language : Chinese
Default : No
Forced : No

Menu
00:00:00.000 : :Main Title / Perfect Day
00:03:37.092 : :Dressing for Success
00:05:15.649 : :A New Future Is Born
00:10:56.906 : :Staving Off Depression
00:13:17.130 : :"e;I'm going to Harvard!"e;
00:16:11.596 : :Video Essay & Exam
00:18:40.202 : :Not Your Average Entry
00:21:30.498 : :A Fish out of Water
00:23:44.757 : :Unreasonable Professor
00:28:51.563 : :Finally Someone Nice
00:31:41.983 : :Beauty Tips
00:35:03.727 : :No Blondes Allowed
00:38:11.164 : :Homesick
00:40:08.740 : :The Party's Over
00:42:41.726 : :"e;Taking full control"e;
00:44:39.635 : :Winning Her First Case
00:47:20.546 : :Intern Potential
00:51:06.146 : :Happy People Don't Kill
00:53:13.857 : :"e;I didn't do it!"e;
00:54:37.524 : :Bend and Snap!
00:57:46.463 : :"e;We need an alibi!"e;
01:01:55.462 : :Uncovering Evidence
01:04:28.573 : :A Winning Performance
01:05:32.929 : :A Bonding Experience
01:07:28.670 : :Trial and Error
01:13:10.595 : :Poor Judgment
01:15:59.597 : :"e;I'm quitting!"e;
01:18:41.300 : :New Representation
01:21:58.330 : :True Confession
01:27:09.391 : :Triumphant Blondes
01:28:35.852 : :Graduation Day
01:31:58.596 : :End Credits

Legally.Blonde.2001.1080p.Blu-ray.Remux.AVC.DTS-HD.MA.5.1-CiNEPHiLES

Files