Le Samourai 1967 UHD BluRay 1080p DDP 1 0 DoVi HDR x265-SM737

Things suddenly go badly for a successful French assassin.

Year: 1967
Duration: 101 min
Release date: Wednesday 25th October 1967
Genre: Crime, Drama, Mystery, Thriller

Rating

8.2/10
(17064 Votes)

0

Your Rating

Stars:
Alain Delon, Nathalie Delon, François Périer, Cathy Rosier

https://www.imdb.com/title/tt0062229/

General
Unique ID : 297080687550766417944258535433719005331 (0xDF7FA8C1ADFD96AB2F6B6C98420C4093)
Complete name : Le.Samourai.1967.UHD.BluRay.1080p.DDP.1.0.DoVi.HDR.x265-SM737.mkv
Format : Matroska
Format version : Version 4
File size : 2.77 GiB
Duration : 1 h 45 min
Overall bit rate : 3 758 kb/s
Frame rate : 23.976 FPS
Released date : 1967-10-25
Encoded date : 2024-06-18 19:24:43 UTC
Writing application : mkvmerge v82.0 ('I'm The President') 64-bit
Writing library : libebml v1.4.5 + libmatroska v1.7.1 / Lavf61.1.100
DIRECTOR : Jean-Pierre Melville
GENRE : Thriller
SUMMARY : After carrying out a flawlessly planned hit, Jef Costello, a contract killer with samurai instincts, finds himself caught between a persistent police investigator and a ruthless employer, and not even his armor of fedora and trench coat can protect him.

Video
ID : 1
Format : HEVC
Format/Info : High Efficiency Video Coding
Format profile : Main 10@L5.2@High
HDR format : Dolby Vision, Version 1.0, dvhe.08.10, BL+RPU, HDR10 compatible / SMPTE ST 2086, HDR10 compatible / SMPTE ST 2086, HDR10 compatible
Codec ID : V_MPEGH/ISO/HEVC
Duration : 1 h 45 min
Bit rate : 3 544 kb/s
Width : 1 920 pixels
Height : 1 038 pixels
Display aspect ratio : 1.85:1
Frame rate mode : Constant
Frame rate : 23.976 (24000/1001) FPS
Color space : YUV
Chroma subsampling : 4:2:0 (Type 2)
Bit depth : 10 bits
Bits/(Pixel*Frame) : 0.074
Stream size : 2.61 GiB (94%)
Writing library : x265 3.6+1-aa7f602f7:[Windows][GCC 13.2.0][64 bit] 10bit
Encoding settings : cpuid=1111039 / frame-threads=4 / numa-pools=16 / wpp / no-pmode / no-pme / no-psnr / no-ssim / log-level=2 / input-csp=1 / input-res=1920x1038 / interlace=0 / total-frames=0 / level-idc=52 / high-tier=1 / uhd-bd=0 / ref=6 / no-allow-non-conformance / repeat-headers / annexb / aud / no-eob / no-eos / hrd / info / hash=0 / temporal-layers=0 / open-gop / min-keyint=24 / keyint=240 / gop-lookahead=0 / bframes=8 / b-adapt=2 / b-pyramid / bframe-bias=0 / rc-lookahead=40 / lookahead-slices=4 / scenecut=40 / no-hist-scenecut / radl=0 / no-splice / no-intra-refresh / ctu=64 / min-cu-size=8 / rect / no-amp / max-tu-size=32 / tu-inter-depth=1 / tu-intra-depth=1 / limit-tu=0 / rdoq-level=2 / dynamic-rd=0.00 / no-ssim-rd / signhide / no-tskip / nr-intra=0 / nr-inter=0 / no-constrained-intra / strong-intra-smoothing / max-merge=3 / limit-refs=3 / limit-modes / me=3 / subme=3 / merange=57 / temporal-mvp / no-frame-dup / no-hme / no-weightp / no-weightb / no-analyze-src-pics / deblock=-3:-3 / no-sao / no-sao-non-deblock / rd=4 / selective-sao=0 / no-early-skip / rskip / no-fast-intra / no-tskip-fast / no-cu-lossless / no-b-intra / no-splitrd-skip / rdpenalty=0 / psy-rd=2.00 / psy-rdoq=1.00 / no-rd-refine / no-lossless / cbqpoffs=0 / crqpoffs=0 / rc=abr / bitrate=3500 / qcomp=0.60 / qpstep=4 / stats-write=0 / stats-read=2 / cplxblur=20.0 / qblur=0.5 / vbv-maxrate=240000 / vbv-bufsize=240000 / vbv-init=0.9 / min-vbv-fullness=50.0 / max-vbv-fullness=80.0 / ipratio=1.40 / pbratio=1.30 / aq-mode=4 / aq-strength=1.00 / cutree / zone-count=0 / no-strict-cbr / qg-size=32 / no-rc-grain / qpmax=69 / qpmin=0 / no-const-vbv / sar=1 / overscan=0 / videoformat=5 / range=0 / colorprim=9 / transfer=16 / colormatrix=9 / chromaloc=1 / chromaloc-top=2 / chromaloc-bottom=2 / display-window=0 / master-display=G(8500,39850)B(6550,2300)R(35400,14600)WP(15635,16450)L(10000000,1) / cll=1184,187 / min-luma=0 / max-luma=1023 / log2-max-poc-lsb=8 / vui-timing-info / vui-hrd-info / slices=1 / no-opt-qp-pps / no-opt-ref-list-length-pps / no-multi-pass-opt-rps / scenecut-bias=0.05 / no-opt-cu-delta-qp / no-aq-motion / hdr10 / hdr10-opt / no-dhdr10-opt / no-idr-recovery-sei / analysis-reuse-level=0 / analysis-save-reuse-level=0 / analysis-load-reuse-level=0 / scale-factor=0 / refine-intra=0 / refine-inter=0 / refine-mv=1 / refine-ctu-distortion=0 / no-limit-sao / ctu-info=0 / no-lowpass-dct / refine-analysis-type=0 / copy-pic=1 / max-ausize-factor=1.0 / no-dynamic-refine / no-single-sei / no-hevc-aq / no-svt / no-field / qp-adaptation-range=1.00 / scenecut-aware-qp=0conformance-window-offsets / right=0 / bottom=0 / decoder-max-rate=0 / no-vbv-live-multi-pass / no-mcstf / no-sbrc
Default : Yes
Forced : No
Color range : Limited
Color primaries : BT.2020
Transfer characteristics : PQ
Matrix coefficients : BT.2020 non-constant
Mastering display color primaries : BT.2020
Mastering display luminance : min: 0.0001 cd/m2, max: 1000 cd/m2
Maximum Content Light Level : 1184
MaxCLL_Original : 1184 cd/m2
Maximum Frame-Average Light Level : 187
MaxFALL_Original : 187 cd/m2

Audio
ID : 2
Format : E-AC-3
Format/Info : Enhanced AC-3
Commercial name : Dolby Digital Plus
Codec ID : A_EAC3
Duration : 1 h 45 min
Bit rate mode : Constant
Bit rate : 192 kb/s
Channel(s) : 1 channel
Channel layout : M
Sampling rate : 48.0 kHz
Frame rate : 31.250 FPS (1536 SPF)
Compression mode : Lossy
Stream size : 145 MiB (5%)
Title : Original Mono Mix
Language : French
Service kind : Complete Main
Default : Yes
Forced : No

Text #1
ID : 3
Format : PGS
Muxing mode : zlib
Codec ID : S_HDMV/PGS
Codec ID/Info : Picture based subtitle format used on BDs/HD-DVDs
Duration : 1 h 45 min
Bit rate : 17.4 kb/s
Frame rate : 0.167 FPS
Count of elements : 1054
Stream size : 13.1 MiB (0%)
Title : English Regular / Criterion Edited
Language : English
Default : Yes
Forced : No

Text #2
ID : 4
Format : PGS
Muxing mode : zlib
Codec ID : S_HDMV/PGS
Codec ID/Info : Picture based subtitle format used on BDs/HD-DVDs
Duration : 1 h 45 min
Bit rate : 9 248 b/s
Frame rate : 0.170 FPS
Count of elements : 1074
Stream size : 6.96 MiB (0%)
Title : English Regular / Pathe (2023)
Language : English
Default : No
Forced : No

Text #3
ID : 5
Format : ASS
Codec ID : S_TEXT/ASS
Codec ID/Info : Advanced Sub Station Alpha
Duration : 1 h 45 min
Bit rate : 34 b/s
Frame rate : 0.084 FPS
Count of elements : 527
Compression mode : Lossless
Stream size : 26.6 KiB (0%)
Title : English OCR / Criterion
Language : English
Default : No
Forced : No

Text #4
ID : 6
Format : ASS
Codec ID : S_TEXT/ASS
Codec ID/Info : Advanced Sub Station Alpha
Duration : 1 h 45 min
Bit rate : 34 b/s
Frame rate : 0.085 FPS
Count of elements : 537
Compression mode : Lossless
Stream size : 26.9 KiB (0%)
Title : English OCR / Pathe
Language : English
Default : No
Forced : No

Text #5
ID : 7
Format : PGS
Muxing mode : zlib
Codec ID : S_HDMV/PGS
Codec ID/Info : Picture based subtitle format used on BDs/HD-DVDs
Duration : 1 h 44 min
Bit rate : 12.0 kb/s
Frame rate : 0.221 FPS
Count of elements : 1378
Stream size : 8.96 MiB (0%)
Language : French
Default : No
Forced : No

Text #6
ID : 8
Format : PGS
Muxing mode : zlib
Codec ID : S_HDMV/PGS
Codec ID/Info : Picture based subtitle format used on BDs/HD-DVDs
Duration : 1 h 43 min
Bit rate : 10.1 kb/s
Frame rate : 0.164 FPS
Count of elements : 1014
Stream size : 7.47 MiB (0%)
Language : Japanese
Default : No
Forced : No

Text #7
ID : 9
Format : ASS
Codec ID : S_TEXT/ASS
Codec ID/Info : Advanced Sub Station Alpha
Duration : 1 h 41 min
Bit rate : 39 b/s
Frame rate : 0.098 FPS
Count of elements : 597
Compression mode : Lossless
Stream size : 29.0 KiB (0%)
Title : Spanish (Castilian)
Language : Spanish
Default : No
Forced : No

Menu
00:00:00.000 : Samurai
00:04:14.004 : Car
00:06:13.415 : Garage
00:08:56.786 : Alibi
00:12:16.736 : Contract
00:19:21.535 : Scene of the Crime
00:21:52.311 : Lineup
00:27:13.715 : Investigation
00:35:46.102 : "e;Oui Ou Non?"e;
00:39:46.009 : 1,rue Lord Byron
00:43:43.621 : Rendezvous
00:46:47.763 : Wounded
00:49:22.251 : Strategy
00:51:43.058 : Sunday, 10:00 P.M.
00:56:10.534 : Magnetophon 300
01:03:27.762 : Valérie
01:06:54.302 : Jane
01:13:39.332 : Surveillance
01:18:57.358 : Bird in a cage
01:23:22.331 : The Métro
01:33:48.832 : Garage
01:36:00.088 : "e;Don't You Need Me?"e;
01:39:06.274 : Contract

Le.Samourai.1967.2160p.UHD.Blu-ray.Remux.DV.HDR.HEVC.FLAC.1.0-CiNEPHiLES

Files