The Expendables 2010 UHD BluRay 1080p DDP 7 1 DoVi HDR x265-SM737

A team of mercenaries head to South America on a mission to overthrow a dictator.

Year: 2010
Duration: 103 min
Release date: Friday 13th August 2010
Genre: Action, Adventure, Thriller, War

Rating

6.9/10
(53160 Votes)

0

Your Rating

Stars:
Sylvester Stallone, Jason Statham, Jet Li, Dolph Lundgren

https://www.imdb.com/title/tt1320253/

General
Unique ID : 60599483207096998691737408099479350422 (0x2D970932DBDB68CF97EB1C89DEA26C96)
Complete name : The.Expendables.2010.UHD.BluRay.1080p.DDP.7.1.DoVi.HDR.x265-SM737.mkv
Format : Matroska
Format version : Version 4
File size : 4.99 GiB
Duration : 1 h 43 min
Overall bit rate : 6 900 kb/s
Frame rate : 23.976 FPS
Encoded date : 2024-06-17 06:22:30 UTC
Writing application : mkvmerge v82.0 ('I'm The President') 64-bit
Writing library : libebml v1.4.5 + libmatroska v1.7.1 / Lavf61.1.100

Video
ID : 1
Format : HEVC
Format/Info : High Efficiency Video Coding
Format profile : Main 10@L5.2@High
HDR format : Dolby Vision, Version 1.0, dvhe.08.10, BL+RPU, HDR10 compatible / SMPTE ST 2086, HDR10 compatible / SMPTE ST 2086, HDR10 compatible
Codec ID : V_MPEGH/ISO/HEVC
Duration : 1 h 43 min
Bit rate : 5 038 kb/s
Width : 1 920 pixels
Height : 800 pixels
Display aspect ratio : 2.40:1
Frame rate mode : Constant
Frame rate : 23.976 (24000/1001) FPS
Color space : YUV
Chroma subsampling : 4:2:0 (Type 2)
Bit depth : 10 bits
Bits/(Pixel*Frame) : 0.137
Stream size : 3.65 GiB (73%)
Writing library : x265 3.6+1-aa7f602f7:[Windows][GCC 13.2.0][64 bit] 10bit
Encoding settings : cpuid=1111039 / frame-threads=4 / numa-pools=16 / wpp / no-pmode / no-pme / no-psnr / no-ssim / log-level=2 / input-csp=1 / input-res=1920x800 / interlace=0 / total-frames=0 / level-idc=52 / high-tier=1 / uhd-bd=0 / ref=6 / no-allow-non-conformance / repeat-headers / annexb / aud / no-eob / no-eos / hrd / info / hash=0 / temporal-layers=0 / open-gop / min-keyint=24 / keyint=240 / gop-lookahead=0 / bframes=8 / b-adapt=2 / b-pyramid / bframe-bias=0 / rc-lookahead=40 / lookahead-slices=4 / scenecut=40 / no-hist-scenecut / radl=0 / no-splice / no-intra-refresh / ctu=64 / min-cu-size=8 / rect / no-amp / max-tu-size=32 / tu-inter-depth=1 / tu-intra-depth=1 / limit-tu=0 / rdoq-level=2 / dynamic-rd=0.00 / no-ssim-rd / signhide / no-tskip / nr-intra=0 / nr-inter=0 / no-constrained-intra / strong-intra-smoothing / max-merge=3 / limit-refs=3 / limit-modes / me=3 / subme=3 / merange=57 / temporal-mvp / no-frame-dup / no-hme / no-weightp / no-weightb / no-analyze-src-pics / deblock=-3:-3 / no-sao / no-sao-non-deblock / rd=4 / selective-sao=0 / no-early-skip / rskip / no-fast-intra / no-tskip-fast / no-cu-lossless / no-b-intra / no-splitrd-skip / rdpenalty=0 / psy-rd=2.00 / psy-rdoq=1.00 / no-rd-refine / no-lossless / cbqpoffs=0 / crqpoffs=0 / rc=abr / bitrate=5000 / qcomp=0.60 / qpstep=4 / stats-write=0 / stats-read=2 / cplxblur=20.0 / qblur=0.5 / vbv-maxrate=240000 / vbv-bufsize=240000 / vbv-init=0.9 / min-vbv-fullness=50.0 / max-vbv-fullness=80.0 / ipratio=1.40 / pbratio=1.30 / aq-mode=4 / aq-strength=1.00 / cutree / zone-count=0 / no-strict-cbr / qg-size=32 / no-rc-grain / qpmax=69 / qpmin=0 / no-const-vbv / sar=1 / overscan=0 / videoformat=5 / range=0 / colorprim=9 / transfer=16 / colormatrix=9 / chromaloc=1 / chromaloc-top=2 / chromaloc-bottom=2 / display-window=0 / master-display=G(13250,34500)B(7500,3000)R(34000,16000)WP(15635,16450)L(40000000,50) / cll=1000,300 / min-luma=0 / max-luma=1023 / log2-max-poc-lsb=8 / vui-timing-info / vui-hrd-info / slices=1 / no-opt-qp-pps / no-opt-ref-list-length-pps / no-multi-pass-opt-rps / scenecut-bias=0.05 / no-opt-cu-delta-qp / no-aq-motion / hdr10 / hdr10-opt / no-dhdr10-opt / no-idr-recovery-sei / analysis-reuse-level=0 / analysis-save-reuse-level=0 / analysis-load-reuse-level=0 / scale-factor=0 / refine-intra=0 / refine-inter=0 / refine-mv=1 / refine-ctu-distortion=0 / no-limit-sao / ctu-info=0 / no-lowpass-dct / refine-analysis-type=0 / copy-pic=1 / max-ausize-factor=1.0 / no-dynamic-refine / no-single-sei / no-hevc-aq / no-svt / no-field / qp-adaptation-range=1.00 / scenecut-aware-qp=0conformance-window-offsets / right=0 / bottom=0 / decoder-max-rate=0 / no-vbv-live-multi-pass / no-mcstf / no-sbrc
Default : Yes
Forced : No
Color range : Limited
Color primaries : BT.2020
Transfer characteristics : PQ
Matrix coefficients : BT.2020 non-constant
Mastering display color primaries : Display P3
Mastering display luminance : min: 0.0050 cd/m2, max: 4000 cd/m2
Maximum Content Light Level : 1000
MaxCLL_Original : 1000 cd/m2
Maximum Frame-Average Light Level : 300
MaxFALL_Original : 300 cd/m2

Audio #1
ID : 2
Format : E-AC-3
Format/Info : Enhanced AC-3
Commercial name : Dolby Digital Plus
Format profile : Blu-ray Disc
Codec ID : A_EAC3
Duration : 1 h 43 min
Bit rate mode : Constant
Bit rate : 1 536 kb/s
Channel(s) : 8 channels
Channel layout : L R C LFE Ls Rs Lb Rb
Sampling rate : 48.0 kHz
Frame rate : 31.250 FPS (1536 SPF)
Compression mode : Lossy
Stream size : 1.11 GiB (22%)
Title : Dolby Digital Plus / 7.1 / 48 kHz / 1536 kbps
Language : English
Service kind : Complete Main
Default : Yes
Forced : No

Audio #2
ID : 3
Format : AC-3
Format/Info : Audio Coding 3
Commercial name : Dolby Digital
Codec ID : A_AC3
Duration : 1 h 43 min
Bit rate mode : Constant
Bit rate : 192 kb/s
Channel(s) : 2 channels
Channel layout : L R
Sampling rate : 48.0 kHz
Frame rate : 31.250 FPS (1536 SPF)
Compression mode : Lossy
Stream size : 142 MiB (3%)
Title : Commentary by director, actor and co-writer, Sylvester Stallone
Language : English
Service kind : Complete Main
Default : No
Forced : No

Text #1
ID : 4
Format : PGS
Muxing mode : zlib
Codec ID : S_HDMV/PGS
Codec ID/Info : Picture based subtitle format used on BDs/HD-DVDs
Duration : 1 h 34 min
Bit rate : 28.4 kb/s
Frame rate : 0.374 FPS
Count of elements : 2116
Stream size : 19.2 MiB (0%)
Title : SUP/SDH
Language : English
Default : Yes
Forced : No

Text #2
ID : 5
Format : ASS
Codec ID : S_TEXT/ASS
Codec ID/Info : Advanced Sub Station Alpha
Duration : 1 h 18 min
Bit rate : 5 b/s
Frame rate : 0.011 FPS
Count of elements : 52
Compression mode : Lossless
Stream size : 3.06 KiB (0%)
Title : SRT/Forced
Language : English
Default : No
Forced : No

Text #3
ID : 6
Format : ASS
Codec ID : S_TEXT/ASS
Codec ID/Info : Advanced Sub Station Alpha
Duration : 1 h 30 min
Bit rate : 96 b/s
Frame rate : 0.170 FPS
Count of elements : 922
Compression mode : Lossless
Stream size : 63.8 KiB (0%)
Title : SRT/Regular
Language : English
Default : No
Forced : No

Text #4
ID : 7
Format : PGS
Muxing mode : zlib
Codec ID : S_HDMV/PGS
Codec ID/Info : Picture based subtitle format used on BDs/HD-DVDs
Duration : 1 h 29 min
Bit rate : 25.5 kb/s
Frame rate : 0.324 FPS
Count of elements : 1740
Stream size : 16.4 MiB (0%)
Title : SUP/Regular
Language : English
Default : No
Forced : No

Text #5
ID : 8
Format : ASS
Codec ID : S_TEXT/ASS
Codec ID/Info : Advanced Sub Station Alpha
Duration : 1 h 34 min
Bit rate : 106 b/s
Frame rate : 0.194 FPS
Count of elements : 1097
Compression mode : Lossless
Stream size : 73.5 KiB (0%)
Title : SRT/SDH
Language : English
Default : No
Forced : No

Text #6
ID : 9
Format : PGS
Muxing mode : zlib
Codec ID : S_HDMV/PGS
Codec ID/Info : Picture based subtitle format used on BDs/HD-DVDs
Duration : 1 h 33 min
Bit rate : 19.4 kb/s
Frame rate : 0.268 FPS
Count of elements : 1498
Stream size : 12.9 MiB (0%)
Language : Catalan
Default : No
Forced : No

Text #7
ID : 10
Format : ASS
Codec ID : S_TEXT/ASS
Codec ID/Info : Advanced Sub Station Alpha
Duration : 1 h 41 min
Bit rate : 72 b/s
Frame rate : 0.113 FPS
Count of elements : 693
Compression mode : Lossless
Stream size : 54.0 KiB (0%)
Title : SRT
Language : Danish
Default : No
Forced : No

Text #8
ID : 11
Format : PGS
Muxing mode : zlib
Codec ID : S_HDMV/PGS
Codec ID/Info : Picture based subtitle format used on BDs/HD-DVDs
Duration : 1 h 32 min
Bit rate : 28.3 kb/s
Frame rate : 0.228 FPS
Count of elements : 1272
Stream size : 18.8 MiB (0%)
Language : Dutch
Default : No
Forced : No

Text #9
ID : 12
Format : ASS
Codec ID : S_TEXT/ASS
Codec ID/Info : Advanced Sub Station Alpha
Duration : 1 h 30 min
Bit rate : 83 b/s
Frame rate : 0.153 FPS
Count of elements : 832
Compression mode : Lossless
Stream size : 55.3 KiB (0%)
Title : SRT
Language : Finnish
Default : No
Forced : No

Text #10
ID : 13
Format : PGS
Muxing mode : zlib
Codec ID : S_HDMV/PGS
Codec ID/Info : Picture based subtitle format used on BDs/HD-DVDs
Duration : 1 h 39 min
Bit rate : 16.5 kb/s
Frame rate : 0.329 FPS
Count of elements : 1960
Stream size : 11.7 MiB (0%)
Language : French
Default : No
Forced : No

Text #11
ID : 14
Format : PGS
Muxing mode : zlib
Codec ID : S_HDMV/PGS
Codec ID/Info : Picture based subtitle format used on BDs/HD-DVDs
Duration : 1 h 41 min
Bit rate : 22.1 kb/s
Frame rate : 0.251 FPS
Count of elements : 1534
Stream size : 16.1 MiB (0%)
Title : Regular
Language : German
Default : No
Forced : No

Text #12
ID : 15
Format : PGS
Muxing mode : zlib
Codec ID : S_HDMV/PGS
Codec ID/Info : Picture based subtitle format used on BDs/HD-DVDs
Duration : 1 h 34 min
Bit rate : 25.3 kb/s
Frame rate : 0.299 FPS
Count of elements : 1698
Stream size : 17.1 MiB (0%)
Title : SDH
Language : German
Default : No
Forced : No

Text #13
ID : 16
Format : PGS
Muxing mode : zlib
Codec ID : S_HDMV/PGS
Codec ID/Info : Picture based subtitle format used on BDs/HD-DVDs
Duration : 1 h 30 min
Bit rate : 11.1 kb/s
Frame rate : 0.223 FPS
Count of elements : 1212
Stream size : 7.16 MiB (0%)
Title : SDH
Language : Italian
Default : No
Forced : No

Text #14
ID : 17
Format : PGS
Muxing mode : zlib
Codec ID : S_HDMV/PGS
Codec ID/Info : Picture based subtitle format used on BDs/HD-DVDs
Duration : 1 h 34 min
Bit rate : 22.3 kb/s
Frame rate : 0.387 FPS
Count of elements : 2190
Stream size : 15.0 MiB (0%)
Title : Traditional
Language : Chinese
Default : No
Forced : No

Text #15
ID : 18
Format : ASS
Codec ID : S_TEXT/ASS
Codec ID/Info : Advanced Sub Station Alpha
Duration : 1 h 31 min
Bit rate : 71 b/s
Frame rate : 0.120 FPS
Count of elements : 658
Compression mode : Lossless
Stream size : 47.9 KiB (0%)
Title : SRT
Language : Norwegian
Default : No
Forced : No

Text #16
ID : 19
Format : ASS
Codec ID : S_TEXT/ASS
Codec ID/Info : Advanced Sub Station Alpha
Duration : 1 h 33 min
Bit rate : 85 b/s
Frame rate : 0.152 FPS
Count of elements : 850
Compression mode : Lossless
Stream size : 58.6 KiB (0%)
Title : Brazilian/SRT
Language : Portuguese
Default : No
Forced : No

Text #17
ID : 20
Format : PGS
Muxing mode : zlib
Codec ID : S_HDMV/PGS
Codec ID/Info : Picture based subtitle format used on BDs/HD-DVDs
Duration : 1 h 33 min
Bit rate : 21.6 kb/s
Frame rate : 0.294 FPS
Count of elements : 1653
Stream size : 14.4 MiB (0%)
Title : Brazilian
Language : Portuguese
Default : No
Forced : No

Text #18
ID : 21
Format : ASS
Codec ID : S_TEXT/ASS
Codec ID/Info : Advanced Sub Station Alpha
Duration : 1 h 33 min
Bit rate : 80 b/s
Frame rate : 0.147 FPS
Count of elements : 820
Compression mode : Lossless
Stream size : 54.8 KiB (0%)
Title : SRT
Language : Spanish
Default : No
Forced : No

Text #19
ID : 22
Format : PGS
Muxing mode : zlib
Codec ID : S_HDMV/PGS
Codec ID/Info : Picture based subtitle format used on BDs/HD-DVDs
Duration : 1 h 33 min
Bit rate : 18.4 kb/s
Frame rate : 0.293 FPS
Count of elements : 1640
Stream size : 12.2 MiB (0%)
Language : Spanish
Default : No
Forced : No

Text #20
ID : 23
Format : PGS
Muxing mode : zlib
Codec ID : S_HDMV/PGS
Codec ID/Info : Picture based subtitle format used on BDs/HD-DVDs
Duration : 1 h 33 min
Bit rate : 23.4 kb/s
Frame rate : 0.318 FPS
Count of elements : 1784
Stream size : 15.7 MiB (0%)
Title : Latin American
Language : Spanish
Default : No
Forced : No

Text #21
ID : 24
Format : ASS
Codec ID : S_TEXT/ASS
Codec ID/Info : Advanced Sub Station Alpha
Duration : 1 h 41 min
Bit rate : 66 b/s
Frame rate : 0.103 FPS
Count of elements : 631
Compression mode : Lossless
Stream size : 49.3 KiB (0%)
Title : SRT
Language : Swedish
Default : No
Forced : No

Text #22
ID : 25
Format : PGS
Muxing mode : zlib
Codec ID : S_HDMV/PGS
Codec ID/Info : Picture based subtitle format used on BDs/HD-DVDs
Duration : 1 h 34 min
Bit rate : 34.2 kb/s
Frame rate : 0.241 FPS
Count of elements : 1366
Stream size : 23.1 MiB (0%)
Title : Commentary
Language : Dutch
Default : No
Forced : No

Text #23
ID : 26
Format : PGS
Muxing mode : zlib
Codec ID : S_HDMV/PGS
Codec ID/Info : Picture based subtitle format used on BDs/HD-DVDs
Duration : 1 h 43 min
Bit rate : 32.1 kb/s
Frame rate : 0.459 FPS
Count of elements : 2840
Stream size : 23.7 MiB (0%)
Title : Commentary
Language : French
Default : No
Forced : No

Text #24
ID : 27
Format : PGS
Muxing mode : zlib
Codec ID : S_HDMV/PGS
Codec ID/Info : Picture based subtitle format used on BDs/HD-DVDs
Duration : 1 h 34 min
Bit rate : 41.1 kb/s
Frame rate : 0.375 FPS
Count of elements : 2124
Stream size : 27.8 MiB (1%)
Title : Commentary
Language : German
Default : No
Forced : No

Text #25
ID : 28
Format : PGS
Muxing mode : zlib
Codec ID : S_HDMV/PGS
Codec ID/Info : Picture based subtitle format used on BDs/HD-DVDs
Duration : 1 h 34 min
Bit rate : 22.3 kb/s
Frame rate : 0.372 FPS
Count of elements : 2110
Stream size : 15.1 MiB (0%)
Title : Brazilian/Commentary
Language : Portuguese
Default : No
Forced : No

Text #26
ID : 29
Format : UTF-8
Codec ID : S_TEXT/UTF8
Codec ID/Info : UTF-8 Plain Text
Duration : 1 h 29 min
Bit rate : 41 b/s
Frame rate : 0.162 FPS
Count of elements : 869
Stream size : 26.9 KiB (0%)
Language : English
Default : No
Forced : No

Text #27
ID : 30
Format : UTF-8
Codec ID : S_TEXT/UTF8
Codec ID/Info : UTF-8 Plain Text
Duration : 1 h 34 min
Bit rate : 43 b/s
Frame rate : 0.187 FPS
Count of elements : 1057
Stream size : 30.3 KiB (0%)
Title : SDH
Language : English
Default : No
Forced : No

Menu
00:00:00.000 : Under Siege
00:08:50.864 : No Good
00:17:32.218 : The Inside
00:22:47.783 : Can't Trust You
00:30:35.208 : The Contact
00:33:34.888 : Behind Schedule
00:38:17.170 : I Belong Here
00:47:51.577 : Your Life
00:50:15.221 : How It Starts
00:55:09.139 : Questions
01:00:15.779 : Street Havoc
01:06:31.571 : Let's Fly
01:13:36.579 : It's Me
01:20:17.271 : Power Struggle
01:26:01.365 : Fire Combat
01:31:17.222 : Not Your Type
01:34:33.960 : End Credits

The.Expendables.2010.2160p.REMUX.DoVi.HDR10.HEVC.TrueHD.7.1-LM

Files