Navy Seals (1990) (2160p UHD BluRay x265 HDR DDP 5 1 English - DiscoD HONE)

While rescuing an American air crew captured by Mid-Eastern terrorists, Lieutenant Curran and his team...

Year: 1990
Duration: 113 min
Release date: Friday 20th July 1990
Genre: Action, Adventure, Thriller

Rating

5.1/10
(7212 Votes)

0

Your Rating

Stars:
Charlie Sheen, Michael Biehn, Joanne Whalley, Rick Rossovich

Enjoy!!
Source : Navy.Seals.1990.UHD.BluRay.2160p.DTS-HD.MA.5.1.HEVC.REMUX-FraMeSToR 56.6GB(Thanks!!)

This File is HDR ONLY
x265 [INFO]: tools: deblock(tC=-3:B=-3)
x265 [INFO]: frame I: 963, Avg QP:24.51 kb/s: 47563.46
x265 [INFO]: frame P: 34641, Avg QP:25.35 kb/s: 42071.24
x265 [INFO]: frame B: 127816, Avg QP:28.68 kb/s: 18629.89
x265 [INFO]: Weighted P-Frames: Y:21.7% UV:17.2%
encoded 163420 frames in 99658.18s (1.64 fps), 23769.37 kb/s, Avg QP:27.95

General
Unique ID : 190898446771956880986440008039797675883 (0x8F9DB41869B8D766702FA4FE8F9CD76B)
Complete name : Navy Seals (1990) (2160p UHD BluRay x265 HDR DDP 5.1 English - DiscoD HONE).mkv
Format : Matroska
Format version : Version 4
File size : 19.8 GiB
Duration : 1 h 53 min
Overall bit rate : 25.0 Mb/s
Frame rate : 23.976 FPS
Movie name : Navy Seals (1990) 4K HDR HONE
Encoded date : 2024-06-28 14:44:47 UTC
Writing application : mkvmerge v84.0 ('Sleeper') 64-bit
Writing library : libebml v1.4.5 + libmatroska v1.7.1

Video
ID : 1
Format : HEVC
Format/Info : High Efficiency Video Coding
Format profile : Main 10@L5.1@High
HDR format : SMPTE ST 2086, HDR10 compatible
Codec ID : V_MPEGH/ISO/HEVC
Duration : 1 h 53 min
Bit rate : 23.8 Mb/s
Width : 3 840 pixels
Height : 2 076 pixels
Display aspect ratio : 1.85:1
Frame rate mode : Constant
Frame rate : 23.976 (24000/1001) FPS
Color space : YUV
Chroma subsampling : 4:2:0 (Type 2)
Bit depth : 10 bits
Bits/(Pixel*Frame) : 0.124
Stream size : 18.9 GiB (95%)
Writing library : x265 3.6+13+1-726aec126:[Windows][MSVC 1939][64 bit] 10bit
Encoding settings : cpuid=1111039 / frame-threads=3 / numa-pools=12 / wpp / no-pmode / no-pme / no-psnr / no-ssim / log-level=2 / input-csp=1 / input-res=3840x2076 / interlace=0 / total-frames=163420 / level-idc=51 / high-tier=1 / uhd-bd=0 / ref=4 / no-allow-non-conformance / repeat-headers / annexb / aud / no-eob / no-eos / hrd / info / hash=0 / temporal-layers=0 / no-open-gop / min-keyint=23 / keyint=253 / gop-lookahead=0 / bframes=4 / b-adapt=2 / b-pyramid / bframe-bias=0 / rc-lookahead=25 / lookahead-slices=4 / scenecut=40 / no-hist-scenecut / radl=0 / no-splice / no-intra-refresh / ctu=64 / min-cu-size=8 / rect / no-amp / max-tu-size=32 / tu-inter-depth=1 / tu-intra-depth=1 / limit-tu=0 / rdoq-level=1 / dynamic-rd=0.00 / no-ssim-rd / signhide / no-tskip / nr-intra=0 / nr-inter=0 / no-constrained-intra / strong-intra-smoothing / max-merge=3 / limit-refs=3 / limit-modes / me=3 / subme=3 / merange=57 / temporal-mvp / no-frame-dup / no-hme / weightp / no-weightb / no-analyze-src-pics / deblock=-3:-3 / no-sao / no-sao-non-deblock / rd=4 / selective-sao=0 / no-early-skip / rskip / no-fast-intra / no-tskip-fast / no-cu-lossless / no-b-intra / no-splitrd-skip / rdpenalty=0 / psy-rd=1.00 / psy-rdoq=3.00 / no-rd-refine / no-lossless / cbqpoffs=0 / crqpoffs=0 / rc=crf / crf=14.0 / qcomp=0.60 / qpstep=4 / stats-write=0 / stats-read=0 / vbv-maxrate=24000 / vbv-bufsize=48000 / vbv-init=0.9 / min-vbv-fullness=50.0 / max-vbv-fullness=80.0 / crf-max=0.0 / crf-min=0.0 / ipratio=1.40 / pbratio=1.30 / aq-mode=3 / aq-strength=1.00 / aq-bias-strength=1.00 / cutree / zone-count=0 / no-strict-cbr / qg-size=32 / no-rc-grain / qpmax=69 / qpmin=0 / no-const-vbv / sar=0 / overscan=0 / videoformat=5 / range=0 / colorprim=9 / transfer=16 / colormatrix=9 / chromaloc=1 / chromaloc-top=2 / chromaloc-bottom=2 / display-window=0 / master-display=G(8500,39850)B(6550,2300)R(35400,14600)WP(15635,16450)L(10000000,1) / cll=1000,400 / min-luma=0 / max-luma=1023 / log2-max-poc-lsb=8 / vui-timing-info / vui-hrd-info / slices=1 / no-opt-qp-pps / no-opt-ref-list-length-pps / no-multi-pass-opt-rps / scenecut-bias=0.05 / no-opt-cu-delta-qp / no-aq-motion / hdr10 / hdr10-opt / no-dhdr10-opt / no-idr-recovery-sei / analysis-reuse-level=0 / analysis-save-reuse-level=0 / analysis-load-reuse-level=0 / scale-factor=0 / refine-intra=0 / refine-inter=0 / refine-mv=1 / refine-ctu-distortion=0 / no-limit-sao / ctu-info=0 / no-lowpass-dct / refine-analysis-type=0 / copy-pic=1 / max-ausize-factor=1.0 / no-dynamic-refine / no-single-sei / no-hevc-aq / no-svt / no-field / qp-adaptation-range=1.00 / scenecut-aware-qp=0 / conformance-window-offsets / right=0 / bottom=0 / decoder-max-rate=0 / no-vbv-live-multi-pass / no-mcstf / no-sbrc
Default : Yes
Forced : No
Color range : Limited
Color primaries : BT.2020
Transfer characteristics : PQ
Matrix coefficients : BT.2020 non-constant
Mastering display color primaries : BT.2020
Mastering display luminance : min: 0.0001 cd/m2, max: 1000 cd/m2
Maximum Content Light Level : 1000 cd/m2
Maximum Frame-Average Light Level : 400 cd/m2

Audio #1
ID : 2
Format : E-AC-3
Format/Info : Enhanced AC-3
Commercial name : Dolby Digital Plus
Codec ID : A_EAC3
Duration : 1 h 53 min
Bit rate mode : Constant
Bit rate : 960 kb/s
Channel(s) : 6 channels
Channel layout : L R C LFE Ls Rs
Sampling rate : 48.0 kHz
Frame rate : 31.250 FPS (1536 SPF)
Compression mode : Lossy
Stream size : 780 MiB (4%)
Title : DDP 5.1
Language : English
Service kind : Complete Main
Default : Yes
Forced : No

Audio #2
ID : 3
Format : AC-3
Format/Info : Audio Coding 3
Commercial name : Dolby Digital
Codec ID : A_AC3
Duration : 1 h 53 min
Bit rate mode : Constant
Bit rate : 192 kb/s
Channel(s) : 2 channels
Channel layout : L R
Sampling rate : 48.0 kHz
Frame rate : 31.250 FPS (1536 SPF)
Compression mode : Lossy
Stream size : 156 MiB (1%)
Title : Commentary by Film Historians Jim Hemphill and Kelly Goodner
Language : English
Service kind : Complete Main
Default : No
Forced : No

Text #1
ID : 4
Format : PGS
Muxing mode : zlib
Codec ID : S_HDMV/PGS
Codec ID/Info : Picture based subtitle format used on BDs/HD-DVDs
Duration : 1 h 46 min
Bit rate : 19.1 kb/s
Frame rate : 0.312 FPS
Count of elements : 1992
Stream size : 14.6 MiB (0%)
Title : English
Language : English
Default : No
Forced : No

Text #2
ID : 5
Format : PGS
Muxing mode : zlib
Codec ID : S_HDMV/PGS
Codec ID/Info : Picture based subtitle format used on BDs/HD-DVDs
Duration : 1 h 51 min
Bit rate : 35.1 kb/s
Frame rate : 0.396 FPS
Count of elements : 2644
Stream size : 28.0 MiB (0%)
Title : English (SDH)
Language : English
Default : No
Forced : No

Text #3
ID : 6
Format : UTF-8
Codec ID : S_TEXT/UTF8
Codec ID/Info : UTF-8 Plain Text
Duration : 1 h 46 min
Bit rate : 38 b/s
Frame rate : 0.161 FPS
Count of elements : 1030
Stream size : 30.3 KiB (0%)
Title : Chinese (Cantonese)
Default : No
Forced : No

Text #4
ID : 7
Format : UTF-8
Codec ID : S_TEXT/UTF8
Codec ID/Info : UTF-8 Plain Text
Duration : 1 h 52 min
Bit rate : 38 b/s
Frame rate : 0.134 FPS
Count of elements : 902
Stream size : 31.6 KiB (0%)
Title : Danish
Language : Danish
Default : No
Forced : No

Text #5
ID : 8
Format : UTF-8
Codec ID : S_TEXT/UTF8
Codec ID/Info : UTF-8 Plain Text
Duration : 1 h 52 min
Bit rate : 40 b/s
Frame rate : 0.132 FPS
Count of elements : 893
Stream size : 33.0 KiB (0%)
Title : Dutch
Language : Dutch
Default : No
Forced : No

Text #6
ID : 9
Format : UTF-8
Codec ID : S_TEXT/UTF8
Codec ID/Info : UTF-8 Plain Text
Duration : 1 h 52 min
Bit rate : 40 b/s
Frame rate : 0.134 FPS
Count of elements : 902
Stream size : 33.7 KiB (0%)
Title : Finnish
Language : Finnish
Default : No
Forced : No

Text #7
ID : 10
Format : UTF-8
Codec ID : S_TEXT/UTF8
Codec ID/Info : UTF-8 Plain Text
Duration : 1 h 52 min
Bit rate : 40 b/s
Frame rate : 0.134 FPS
Count of elements : 903
Stream size : 33.6 KiB (0%)
Title : French
Language : French
Default : No
Forced : No

Text #8
ID : 11
Format : PGS
Muxing mode : zlib
Codec ID : S_HDMV/PGS
Codec ID/Info : Picture based subtitle format used on BDs/HD-DVDs
Duration : 1 h 52 min
Bit rate : 19.8 kb/s
Frame rate : 0.306 FPS
Count of elements : 2076
Stream size : 16.0 MiB (0%)
Title : German
Language : German
Default : No
Forced : No

Text #9
ID : 12
Format : UTF-8
Codec ID : S_TEXT/UTF8
Codec ID/Info : UTF-8 Plain Text
Duration : 1 h 52 min
Bit rate : 33 b/s
Frame rate : 0.134 FPS
Count of elements : 901
Stream size : 27.2 KiB (0%)
Title : Italian
Language : Italian
Default : No
Forced : No

Text #10
ID : 13
Format : PGS
Muxing mode : zlib
Codec ID : S_HDMV/PGS
Codec ID/Info : Picture based subtitle format used on BDs/HD-DVDs
Duration : 1 h 46 min
Bit rate : 18.3 kb/s
Frame rate : 0.321 FPS
Count of elements : 2054
Stream size : 14.0 MiB (0%)
Title : Korean
Language : Korean
Default : No
Forced : No

Text #11
ID : 14
Format : UTF-8
Codec ID : S_TEXT/UTF8
Codec ID/Info : UTF-8 Plain Text
Duration : 1 h 52 min
Bit rate : 39 b/s
Frame rate : 0.134 FPS
Count of elements : 902
Stream size : 32.4 KiB (0%)
Title : Norwegian
Language : Norwegian
Default : No
Forced : No

Text #12
ID : 15
Format : UTF-8
Codec ID : S_TEXT/UTF8
Codec ID/Info : UTF-8 Plain Text
Duration : 1 h 52 min
Bit rate : 39 b/s
Frame rate : 0.134 FPS
Count of elements : 902
Stream size : 32.8 KiB (0%)
Title : Polish
Language : Polish
Default : No
Forced : No

Text #13
ID : 16
Format : UTF-8
Codec ID : S_TEXT/UTF8
Codec ID/Info : UTF-8 Plain Text
Duration : 1 h 52 min
Bit rate : 39 b/s
Frame rate : 0.134 FPS
Count of elements : 902
Stream size : 32.7 KiB (0%)
Title : Portuguese (Iberian)
Language : Portuguese (PT)
Default : No
Forced : No

Text #14
ID : 17
Format : UTF-8
Codec ID : S_TEXT/UTF8
Codec ID/Info : UTF-8 Plain Text
Duration : 1 h 52 min
Bit rate : 41 b/s
Frame rate : 0.134 FPS
Count of elements : 902
Stream size : 34.4 KiB (0%)
Title : Spanish (Castilian)
Language : Spanish (ES)
Default : No
Forced : No

Text #15
ID : 18
Format : PGS
Muxing mode : zlib
Codec ID : S_HDMV/PGS
Codec ID/Info : Picture based subtitle format used on BDs/HD-DVDs
Duration : 1 h 46 min
Bit rate : 26.5 kb/s
Frame rate : 0.318 FPS
Count of elements : 2038
Stream size : 20.2 MiB (0%)
Title : Spanish (Latin American)
Language : Spanish (Latin America)
Default : No
Forced : No

Text #16
ID : 19
Format : UTF-8
Codec ID : S_TEXT/UTF8
Codec ID/Info : UTF-8 Plain Text
Duration : 1 h 52 min
Bit rate : 41 b/s
Frame rate : 0.134 FPS
Count of elements : 902
Stream size : 33.8 KiB (0%)
Title : Swedish
Language : Swedish
Default : No
Forced : No

Menu
00:00:00.000 : en:Main Title/Mayday
00:03:52.107 : en:"e;Bad Timing"e;
00:08:44.315 : en:Rescue Mission
00:15:42.775 : en:Stingers
00:20:15.381 : en:Post Mortem
00:26:09.234 : en:A Little R&R
00:30:53.602 : en:A Peaceful Ship
00:39:53.266 : en:Basic Training
00:46:07.264 : en:A Vaguely Amusing Guy
00:56:45.068 : en:"e;Six Miles Up"e;
01:03:23.508 : en:Thieves in the Night
01:09:10.355 : en:"e;How Did He Die?"e;
01:20:30.034 : en:Child of War
01:30:04.733 : en:A Schoolhouse in Beirut
01:38:25.274 : en:Exit Strategy
01:48:18.117 : en:End Credits

Files