Lucy in the Sky 2019 2160p MA WEB-DL DDP5 1 DV HDR H 265-FLUX

Astronaut Lucy Cola returns to Earth after a transcendent experience during a mission to space, and begins to lose touch with reality in a world that now seems too small.

Year: 2019
Duration: 124 min
Release date: Wednesday 18th March 2020
Genre: Drama, Sci-Fi

Rating

4.9/10
(7852 Votes)

0

Your Rating

Stars:
Natalie Portman, Jon Hamm, Zazie Beetz, Dan Stevens, Pearl Amanda Dickson, Ellen Burstyn, Colman Domingo, Jeremiah Birkett

General
Unique ID : 248840953149644496383825326415720045249 (0xBB350638EC4A322232FAD2BBA9595AC1)
Complete name : Lucy.in.the.Sky.2019.2160p.MA.WEB-DL.DDP5.1.DV.HDR.H.265-FLUX.mkv
Format : Matroska
Format version : Version 4
File size : 22.0 GiB
Duration : 2 h 5 min
Overall bit rate : 25.1 Mb/s
Movie name : Lucy in the Sky (2019)
Writing application : mkvmerge v83.0 ('Circle Of Friends') 64-bit
Writing library : libebml v1.4.5 + libmatroska v1.7.1
IMDB : tt4682804
TMDB : movie/340104

Video
ID : 1
Format : HEVC
Format/Info : High Efficiency Video Coding
Format profile : Main 10@L5@High
HDR format : Dolby Vision, Version 1.0, dvhe.08.06, BL+RPU, HDR10 compatible / SMPTE ST 2086, HDR10 compatible
Codec ID : V_MPEGH/ISO/HEVC
Duration : 2 h 5 min
Bit rate : 24.5 Mb/s
Width : 3 840 pixels
Height : 2 160 pixels
Display aspect ratio : 16:9
Frame rate mode : Constant
Frame rate : 23.976 (24000/1001) FPS
Color space : YUV
Chroma subsampling : 4:2:0 (Type 2)
Bit depth : 10 bits
Bits/(Pixel*Frame) : 0.123
Stream size : 21.4 GiB (97%)
Default : Yes
Forced : No
Color range : Limited
Color primaries : BT.2020
Transfer characteristics : PQ
Matrix coefficients : BT.2020 non-constant
Mastering display color primaries : Display P3
Mastering display luminance : min: 0.0050 cd/m2, max: 1000 cd/m2

Audio
ID : 2
Format : E-AC-3
Format/Info : Enhanced AC-3
Commercial name : Dolby Digital Plus
Codec ID : A_EAC3
Duration : 2 h 5 min
Bit rate mode : Constant
Bit rate : 640 kb/s
Channel(s) : 6 channels
Channel layout : L R C LFE Ls Rs
Sampling rate : 48.0 kHz
Frame rate : 31.250 FPS (1536 SPF)
Compression mode : Lossy
Stream size : 572 MiB (3%)
Language : English
Service kind : Complete Main
Default : Yes
Forced : No

Text #1
ID : 3
Format : UTF-8
Codec ID : S_TEXT/UTF8
Codec ID/Info : UTF-8 Plain Text
Duration : 7 s 173 ms
Bit rate : 59 b/s
Count of elements : 2
Stream size : 53.0 Bytes (0%)
Title : Forced
Language : English
Default : Yes
Forced : Yes

Text #2
ID : 4
Format : UTF-8
Codec ID : S_TEXT/UTF8
Codec ID/Info : UTF-8 Plain Text
Duration : 2 h 4 min
Bit rate : 45 b/s
Count of elements : 1295
Stream size : 41.6 KiB (0%)
Language : English
Default : No
Forced : No

Text #3
ID : 5
Format : UTF-8
Codec ID : S_TEXT/UTF8
Codec ID/Info : UTF-8 Plain Text
Duration : 2 h 4 min
Bit rate : 56 b/s
Count of elements : 1538
Stream size : 51.9 KiB (0%)
Title : SDH
Language : English
Default : No
Forced : No

Text #4
ID : 6
Format : UTF-8
Codec ID : S_TEXT/UTF8
Codec ID/Info : UTF-8 Plain Text
Duration : 2 h 4 min
Bit rate : 59 b/s
Count of elements : 1429
Stream size : 54.4 KiB (0%)
Language : Arabic
Default : No
Forced : No

Text #5
ID : 7
Format : UTF-8
Codec ID : S_TEXT/UTF8
Codec ID/Info : UTF-8 Plain Text
Duration : 2 h 4 min
Bit rate : 68 b/s
Count of elements : 1425
Stream size : 63.0 KiB (0%)
Language : Bulgarian
Default : No
Forced : No

Text #6
ID : 8
Format : UTF-8
Codec ID : S_TEXT/UTF8
Codec ID/Info : UTF-8 Plain Text
Duration : 2 h 4 min
Bit rate : 38 b/s
Count of elements : 1425
Stream size : 35.5 KiB (0%)
Language : Czech
Default : No
Forced : No

Text #7
ID : 9
Format : UTF-8
Codec ID : S_TEXT/UTF8
Codec ID/Info : UTF-8 Plain Text
Duration : 2 h 4 min
Bit rate : 42 b/s
Count of elements : 1432
Stream size : 39.1 KiB (0%)
Language : Danish
Default : No
Forced : No

Text #8
ID : 10
Format : UTF-8
Codec ID : S_TEXT/UTF8
Codec ID/Info : UTF-8 Plain Text
Duration : 2 h 4 min
Bit rate : 42 b/s
Count of elements : 1352
Stream size : 38.5 KiB (0%)
Language : German
Default : No
Forced : No

Text #9
ID : 11
Format : UTF-8
Codec ID : S_TEXT/UTF8
Codec ID/Info : UTF-8 Plain Text
Duration : 2 h 4 min
Bit rate : 73 b/s
Count of elements : 1432
Stream size : 67.4 KiB (0%)
Language : Greek
Default : No
Forced : No

Text #10
ID : 12
Format : UTF-8
Codec ID : S_TEXT/UTF8
Codec ID/Info : UTF-8 Plain Text
Duration : 2 h 4 min
Bit rate : 43 b/s
Count of elements : 1339
Stream size : 39.8 KiB (0%)
Title : Latin American
Language : Spanish
Default : No
Forced : No

Text #11
ID : 13
Format : UTF-8
Codec ID : S_TEXT/UTF8
Codec ID/Info : UTF-8 Plain Text
Duration : 2 h 4 min
Bit rate : 46 b/s
Count of elements : 1421
Stream size : 42.2 KiB (0%)
Title : European
Language : Spanish
Default : No
Forced : No

Text #12
ID : 14
Format : UTF-8
Codec ID : S_TEXT/UTF8
Codec ID/Info : UTF-8 Plain Text
Duration : 2 h 4 min
Bit rate : 40 b/s
Count of elements : 1329
Stream size : 36.8 KiB (0%)
Language : Estonian
Default : No
Forced : No

Text #13
ID : 15
Format : UTF-8
Codec ID : S_TEXT/UTF8
Codec ID/Info : UTF-8 Plain Text
Duration : 2 h 4 min
Bit rate : 40 b/s
Count of elements : 1407
Stream size : 36.6 KiB (0%)
Language : Finnish
Default : No
Forced : No

Text #14
ID : 16
Format : UTF-8
Codec ID : S_TEXT/UTF8
Codec ID/Info : UTF-8 Plain Text
Duration : 2 h 4 min
Bit rate : 48 b/s
Count of elements : 1437
Stream size : 43.9 KiB (0%)
Title : Canadian
Language : French
Default : No
Forced : No

Text #15
ID : 17
Format : UTF-8
Codec ID : S_TEXT/UTF8
Codec ID/Info : UTF-8 Plain Text
Duration : 2 h 4 min
Bit rate : 41 b/s
Count of elements : 1405
Stream size : 38.0 KiB (0%)
Title : Parisian
Language : French
Default : No
Forced : No

Text #16
ID : 18
Format : UTF-8
Codec ID : S_TEXT/UTF8
Codec ID/Info : UTF-8 Plain Text
Duration : 2 h 4 min
Bit rate : 57 b/s
Count of elements : 1442
Stream size : 52.8 KiB (0%)
Language : Hebrew
Default : No
Forced : No

Text #17
ID : 19
Format : UTF-8
Codec ID : S_TEXT/UTF8
Codec ID/Info : UTF-8 Plain Text
Duration : 2 h 4 min
Bit rate : 112 b/s
Count of elements : 1441
Stream size : 103 KiB (0%)
Language : Hindi
Default : No
Forced : No

Text #18
ID : 20
Format : UTF-8
Codec ID : S_TEXT/UTF8
Codec ID/Info : UTF-8 Plain Text
Duration : 2 h 4 min
Bit rate : 41 b/s
Count of elements : 1424
Stream size : 38.1 KiB (0%)
Language : Croatian
Default : No
Forced : No

Text #19
ID : 21
Format : UTF-8
Codec ID : S_TEXT/UTF8
Codec ID/Info : UTF-8 Plain Text
Duration : 2 h 4 min
Bit rate : 41 b/s
Count of elements : 1424
Stream size : 37.7 KiB (0%)
Language : Hungarian
Default : No
Forced : No

Text #20
ID : 22
Format : UTF-8
Codec ID : S_TEXT/UTF8
Codec ID/Info : UTF-8 Plain Text
Duration : 2 h 4 min
Bit rate : 38 b/s
Count of elements : 1427
Stream size : 35.3 KiB (0%)
Language : Indonesian
Default : No
Forced : No

Text #21
ID : 23
Format : UTF-8
Codec ID : S_TEXT/UTF8
Codec ID/Info : UTF-8 Plain Text
Duration : 2 h 4 min
Bit rate : 49 b/s
Count of elements : 1426
Stream size : 45.5 KiB (0%)
Language : Icelandic
Default : No
Forced : No

Text #22
ID : 24
Format : UTF-8
Codec ID : S_TEXT/UTF8
Codec ID/Info : UTF-8 Plain Text
Duration : 2 h 4 min
Bit rate : 43 b/s
Count of elements : 1421
Stream size : 39.3 KiB (0%)
Language : Italian
Default : No
Forced : No

Text #23
ID : 25
Format : UTF-8
Codec ID : S_TEXT/UTF8
Codec ID/Info : UTF-8 Plain Text
Duration : 1 h 57 min
Bit rate : 41 b/s
Count of elements : 1350
Stream size : 35.3 KiB (0%)
Language : Japanese
Default : No
Forced : No

Text #24
ID : 26
Format : UTF-8
Codec ID : S_TEXT/UTF8
Codec ID/Info : UTF-8 Plain Text
Duration : 2 h 4 min
Bit rate : 41 b/s
Count of elements : 1427
Stream size : 37.8 KiB (0%)
Language : Korean
Default : No
Forced : No

Text #25
ID : 27
Format : UTF-8
Codec ID : S_TEXT/UTF8
Codec ID/Info : UTF-8 Plain Text
Duration : 2 h 4 min
Bit rate : 43 b/s
Count of elements : 1421
Stream size : 39.6 KiB (0%)
Language : Lithuanian
Default : No
Forced : No

Text #26
ID : 28
Format : UTF-8
Codec ID : S_TEXT/UTF8
Codec ID/Info : UTF-8 Plain Text
Duration : 2 h 4 min
Bit rate : 43 b/s
Count of elements : 1435
Stream size : 39.9 KiB (0%)
Language : Latvian
Default : No
Forced : No

Text #27
ID : 29
Format : UTF-8
Codec ID : S_TEXT/UTF8
Codec ID/Info : UTF-8 Plain Text
Duration : 2 h 4 min
Bit rate : 42 b/s
Count of elements : 1441
Stream size : 38.5 KiB (0%)
Language : Malay
Default : No
Forced : No

Text #28
ID : 30
Format : UTF-8
Codec ID : S_TEXT/UTF8
Codec ID/Info : UTF-8 Plain Text
Duration : 2 h 4 min
Bit rate : 34 b/s
Count of elements : 1343
Stream size : 32.0 KiB (0%)
Language : Dutch
Default : No
Forced : No

Text #29
ID : 31
Format : UTF-8
Codec ID : S_TEXT/UTF8
Codec ID/Info : UTF-8 Plain Text
Duration : 2 h 4 min
Bit rate : 39 b/s
Count of elements : 1367
Stream size : 36.4 KiB (0%)
Title : Flemish
Language : Dutch
Default : No
Forced : No

Text #30
ID : 32
Format : UTF-8
Codec ID : S_TEXT/UTF8
Codec ID/Info : UTF-8 Plain Text
Duration : 2 h 4 min
Bit rate : 39 b/s
Count of elements : 1423
Stream size : 36.5 KiB (0%)
Language : Norwegian
Default : No
Forced : No

Text #31
ID : 33
Format : UTF-8
Codec ID : S_TEXT/UTF8
Codec ID/Info : UTF-8 Plain Text
Duration : 2 h 4 min
Bit rate : 40 b/s
Count of elements : 1418
Stream size : 36.6 KiB (0%)
Language : Polish
Default : No
Forced : No

Text #32
ID : 34
Format : UTF-8
Codec ID : S_TEXT/UTF8
Codec ID/Info : UTF-8 Plain Text
Duration : 2 h 4 min
Bit rate : 44 b/s
Count of elements : 1436
Stream size : 40.5 KiB (0%)
Title : Brazilian
Language : Portuguese
Default : No
Forced : No

Text #33
ID : 35
Format : UTF-8
Codec ID : S_TEXT/UTF8
Codec ID/Info : UTF-8 Plain Text
Duration : 2 h 4 min
Bit rate : 43 b/s
Count of elements : 1434
Stream size : 39.4 KiB (0%)
Title : European
Language : Portuguese
Default : No
Forced : No

Text #34
ID : 36
Format : UTF-8
Codec ID : S_TEXT/UTF8
Codec ID/Info : UTF-8 Plain Text
Duration : 2 h 4 min
Bit rate : 44 b/s
Count of elements : 1435
Stream size : 40.4 KiB (0%)
Language : Romanian
Default : No
Forced : No

Text #35
ID : 37
Format : UTF-8
Codec ID : S_TEXT/UTF8
Codec ID/Info : UTF-8 Plain Text
Duration : 2 h 4 min
Bit rate : 72 b/s
Count of elements : 1414
Stream size : 66.6 KiB (0%)
Language : Russian
Default : No
Forced : No

Text #36
ID : 38
Format : UTF-8
Codec ID : S_TEXT/UTF8
Codec ID/Info : UTF-8 Plain Text
Duration : 2 h 4 min
Bit rate : 42 b/s
Count of elements : 1421
Stream size : 39.2 KiB (0%)
Language : Slovak
Default : No
Forced : No

Text #37
ID : 39
Format : UTF-8
Codec ID : S_TEXT/UTF8
Codec ID/Info : UTF-8 Plain Text
Duration : 2 h 4 min
Bit rate : 36 b/s
Count of elements : 983
Stream size : 33.1 KiB (0%)
Language : Slovenian
Default : No
Forced : No

Text #38
ID : 40
Format : UTF-8
Codec ID : S_TEXT/UTF8
Codec ID/Info : UTF-8 Plain Text
Duration : 2 h 4 min
Bit rate : 40 b/s
Count of elements : 1415
Stream size : 36.9 KiB (0%)
Language : Serbian
Default : No
Forced : No

Text #39
ID : 41
Format : UTF-8
Codec ID : S_TEXT/UTF8
Codec ID/Info : UTF-8 Plain Text
Duration : 2 h 4 min
Bit rate : 42 b/s
Count of elements : 1423
Stream size : 38.6 KiB (0%)
Language : Swedish
Default : No
Forced : No

Text #40
ID : 42
Format : UTF-8
Codec ID : S_TEXT/UTF8
Codec ID/Info : UTF-8 Plain Text
Duration : 2 h 4 min
Bit rate : 100 b/s
Count of elements : 1428
Stream size : 92.1 KiB (0%)
Language : Thai
Default : No
Forced : No

Text #41
ID : 43
Format : UTF-8
Codec ID : S_TEXT/UTF8
Codec ID/Info : UTF-8 Plain Text
Duration : 2 h 4 min
Bit rate : 44 b/s
Count of elements : 1419
Stream size : 40.9 KiB (0%)
Language : Turkish
Default : No
Forced : No

Text #42
ID : 44
Format : UTF-8
Codec ID : S_TEXT/UTF8
Codec ID/Info : UTF-8 Plain Text
Duration : 2 h 4 min
Bit rate : 66 b/s
Count of elements : 1425
Stream size : 60.6 KiB (0%)
Language : Ukrainian
Default : No
Forced : No

Text #43
ID : 45
Format : UTF-8
Codec ID : S_TEXT/UTF8
Codec ID/Info : UTF-8 Plain Text
Duration : 2 h 4 min
Bit rate : 54 b/s
Count of elements : 1438
Stream size : 49.6 KiB (0%)
Language : Vietnamese
Default : No
Forced : No

Text #44
ID : 46
Format : UTF-8
Codec ID : S_TEXT/UTF8
Codec ID/Info : UTF-8 Plain Text
Duration : 2 h 4 min
Bit rate : 35 b/s
Count of elements : 1428
Stream size : 32.8 KiB (0%)
Title : Cantonese | Traditional
Language : Chinese
Default : No
Forced : No

Text #45
ID : 47
Format : UTF-8
Codec ID : S_TEXT/UTF8
Codec ID/Info : UTF-8 Plain Text
Duration : 2 h 4 min
Bit rate : 41 b/s
Count of elements : 1451
Stream size : 38.1 KiB (0%)
Title : Mandarin | Simplified
Language : Chinese
Default : No
Forced : No

Text #46
ID : 48
Format : UTF-8
Codec ID : S_TEXT/UTF8
Codec ID/Info : UTF-8 Plain Text
Duration : 2 h 4 min
Bit rate : 36 b/s
Count of elements : 1431
Stream size : 33.6 KiB (0%)
Title : Mandarin | Traditional
Language : Chinese
Default : No
Forced : No

Menu
00:00:00.000 : en:Chapter 1
00:01:16.868 : en:Chapter 2
00:11:54.088 : en:Chapter 3
00:24:26.965 : en:Chapter 4
00:34:37.867 : en:Chapter 5
00:45:19.717 : en:Chapter 6
00:55:27.449 : en:Chapter 7
01:07:08.775 : en:Chapter 8
01:17:27.601 : en:Chapter 9
01:28:15.248 : en:Chapter 10
01:39:02.854 : en:Chapter 11
01:51:04.491 : en:Chapter 12
01:58:42.240 : en:Credits

Files