Star Wars Episode IV A New Hope 1977 BluRay Remux 2160p DV HDR10+ TrueHD 7.1 HEVC-tarunk9c

Luke Skywalker leaves his home planet, teams up with other rebels, and tries to save Princess Leia from the evil clutches of Darth Vader.

Year: 1977
Duration: 121 min
Release date: Wednesday 25th May 1977
Genre: Action, Adventure, Fantasy, Sci-Fi

Rating

8.6/10
(327775 Votes)

0

Your Rating

Stars:
Mark Hamill, Harrison Ford, Carrie Fisher, Peter Cushing

DV and HDR10+ Metadata generated in DaVinci Resolve using official scene cuts.
No L2 trims in Disney Web DV, hence new metadata can be generated using the latest algorithm for better mapping.

General
Format : Matroska
Format version : Version 4
File size : 47.2 GiB
Duration : 2 h 4 min
Overall bit rate mode : Variable
Overall bit rate : 54.1 Mb/s
Frame rate : 23.976 FPS
Encoded date : 2024-05-30 05:20:11 UTC
Writing application : mkvmerge v83.0 ('Circle Of Friends') 64-bit
Writing library : libebml v1.4.5 + libmatroska v1.7.1

Video
ID : 1
Format : HEVC
Format/Info : High Efficiency Video Coding
Format profile : Main 10@L5.1@High
HDR format : Dolby Vision, Version 1.0, Profile 8.1, dvhe.08.06, BL+RPU, no metadata compression, HDR10 compatible
SMPTE ST 2094 App 4, Version HDR10+ Profile B, HDR10+ Profile B compatible
Codec ID : V_MPEGH/ISO/HEVC
Duration : 2 h 4 min
Bit rate : 47.9 Mb/s
Width : 3 840 pixels
Height : 2 160 pixels
Display aspect ratio : 16:9
Frame rate mode : Constant
Frame rate : 23.976 (24000/1001) FPS
Color space : YUV
Chroma subsampling : 4:2:0 (Type 2)
Bit depth : 10 bits
Bits/(Pixel*Frame) : 0.241
Stream size : 41.7 GiB (88%)
Writing library : ATEME Titan File 3.9.0 (4.9.0.0)
Language : English
Default : Yes
Forced : No
Color range : Limited
Color primaries : BT.2020
Transfer characteristics : PQ
Matrix coefficients : BT.2020 non-constant
Mastering display color primaries : BT.2020
Mastering display luminance : min: 0.0001 cd/m2, max: 1000 cd/m2

Audio #1
ID : 2
Format : MLP FBA 16-ch
Format/Info : Meridian Lossless Packing FBA with 16-channel presentation
Commercial name : Dolby TrueHD with Dolby Atmos
Codec ID : A_TRUEHD
Duration : 2 h 4 min
Bit rate mode : Variable
Bit rate : 3 840 kb/s
Maximum bit rate : 3 705 kb/s
Channel(s) : 8 channels
Channel layout : L R C LFE Ls Rs Lb Rb
Sampling rate : 48.0 kHz
Frame rate : 1 200.000 FPS (40 SPF)
Compression mode : Lossless
Stream size : 3.35 GiB (7%)
Language : English
Default : Yes
Forced : No
Number of dynamic objects : 13
Bed channel count : 1 channel
Bed channel configuration : LFE

Audio #2
ID : 3
Format : AC-3
Format/Info : Audio Coding 3
Commercial name : Dolby Digital
Format settings : Dolby Surround EX
Codec ID : A_AC3
Duration : 2 h 4 min
Bit rate mode : Constant
Bit rate : 640 kb/s
Channel(s) : 6 channels
Channel layout : L R C LFE Ls Rs
Sampling rate : 48.0 kHz
Frame rate : 31.250 FPS (1536 SPF)
Compression mode : Lossy
Stream size : 571 MiB (1%)
Title : Compatibility track
Language : English
Service kind : Complete Main
Default : No
Forced : No

Audio #3
ID : 4
Format : AC-3
Format/Info : Audio Coding 3
Commercial name : Dolby Digital
Codec ID : A_AC3
Duration : 2 h 4 min
Bit rate mode : Constant
Bit rate : 224 kb/s
Channel(s) : 2 channels
Channel layout : L R
Sampling rate : 48.0 kHz
Frame rate : 31.250 FPS (1536 SPF)
Compression mode : Lossy
Stream size : 200 MiB (0%)
Title : Commentary by George Lucas/Carrie Fisher/Ben Burtt/Dennis Muren
Language : English
Service kind : Complete Main
Default : No
Forced : No

Audio #4
ID : 5
Format : AC-3
Format/Info : Audio Coding 3
Commercial name : Dolby Digital
Codec ID : A_AC3
Duration : 2 h 4 min
Bit rate mode : Constant
Bit rate : 224 kb/s
Channel(s) : 2 channels
Channel layout : L R
Sampling rate : 48.0 kHz
Frame rate : 31.250 FPS (1536 SPF)
Compression mode : Lossy
Stream size : 200 MiB (0%)
Title : Commentary by Cast/Crew
Language : English
Service kind : Complete Main
Default : No
Forced : No

SUBTITLES.......: English (Forced only)
SUBTITLES.......: English (English)
SUBTITLES.......: English (SDH)
SUBTITLES.......: Arabic (Arabic)
SUBTITLES.......: Bulgarian (Bulgarian)
SUBTITLES.......: Chinese (Cantonese)
SUBTITLES.......: Chinese (Mandarin Simplified)
SUBTITLES.......: Chinese (Mandarin Traditional)
SUBTITLES.......: Croatian (Croatian)
SUBTITLES.......: Czech (Czech)
SUBTITLES.......: Danish (Danish)
SUBTITLES.......: Dutch (Dutch)
SUBTITLES.......: Finnish (Finnish)
SUBTITLES.......: French (French)
SUBTITLES.......: German (German)
SUBTITLES.......: Greek (Greek)
SUBTITLES.......: Hebrew (Hebrew)
SUBTITLES.......: Hungarian (Hungarian)
SUBTITLES.......: Icelandic (Icelandic)
SUBTITLES.......: Italian (Italian)
SUBTITLES.......: Japanese (Japanese)
SUBTITLES.......: Korean (Korean)
SUBTITLES.......: Norwegian (Norwegian)
SUBTITLES.......: Polish (Polish)
SUBTITLES.......: Portuguese (Brazilian)
SUBTITLES.......: Portuguese (Iberian)
SUBTITLES.......: Romanian (Romanian)
SUBTITLES.......: Russian (Russian)
SUBTITLES.......: Slovenian (Slovenian)
SUBTITLES.......: Spanish (Castilian)
SUBTITLES.......: Spanish (Spanish (Latin American))
SUBTITLES.......: Swedish (Swedish)
SUBTITLES.......: Thai (Thai)
SUBTITLES.......: Turkish (Turkish)
SUBTITLES.......: English (Commentary #1)
SUBTITLES.......: Danish (Commentary #1)
SUBTITLES.......: Dutch (Commentary #1)
SUBTITLES.......: Finnish (Commentary #1)
SUBTITLES.......: French (Commentary #1)
SUBTITLES.......: German (Commentary #1)
SUBTITLES.......: Italian (Commentary #1)
SUBTITLES.......: Norwegian (Commentary #1)
SUBTITLES.......: Portuguese (Commentary #1)
SUBTITLES.......: Russian (Commentary #1)
SUBTITLES.......: Spanish (Commentary #1)
SUBTITLES.......: Spanish (Commentary #1)
SUBTITLES.......: Swedish (Commentary #1)
SUBTITLES.......: English (Commentary #2)
SUBTITLES.......: Danish (Commentary #2)
SUBTITLES.......: Dutch (Commentary #2)
SUBTITLES.......: Finnish (Commentary #2)
SUBTITLES.......: French (Commentary #2)
SUBTITLES.......: German (Commentary #2)
SUBTITLES.......: Italian (Commentary #2)
SUBTITLES.......: Norwegian (Commentary #2)
SUBTITLES.......: Portuguese (Commentary #2)
SUBTITLES.......: Spanish (Commentary #2)
SUBTITLES.......: Spanish (Commentary #2)
SUBTITLES.......: Swedish (Commentary #2)

Files