China O Brien 1990 2160p BluRay UHD REMUX DV HDR HEVC FLAC 2 0-Top10UKSingle

A police woman, expert and instructor in martial arts, leaves the city to stay with her dad, sheriff in a town with peace and quiet - or so she thinks. She gets plenty opportunities to show her martial arts skills.

Year: 1990
Duration: 86 min
Release date: Thursday 1st January 1970
Genre: Action

Rating

5.2/10
(1048 Votes)

0

Your Rating

Stars:
Cynthia Rothrock, Richard Norton, Keith Cooke, Doug Wright, Nijel, Arturo Rivera, Scott McMillan, Patrick Adamson

General
Unique ID : 236609206643261263813216645875010400999 (0xB201468EFACAC1DD1A281C62320072E7)
Complete name : G:\China.O.Brien.1990.2160p.BluRay.UHD.REMUX.DV.HDR.HEVC.FLAC.2.0-Top10UKSingle.mkv
Format : Matroska
Format version : Version 4
File size : 56.5 GiB
Duration : 1 h 30 min
Overall bit rate mode : Variable
Overall bit rate : 89.1 Mb/s
Frame rate : 23.976 FPS
Movie name : China.O.Brien.1990.2160p.BluRay.UHD.REMUX.DV.HDR.HEVC.FLAC.2.0-Top10UKSingle
Encoded date : 2024-07-03 10:19:40 UTC
Writing application : mkvmerge v83.0 ('Circle Of Friends') 64-bit
Writing library : libebml v1.4.5 + libmatroska v1.7.1

Video
ID : 1
Format : HEVC
Format/Info : High Efficiency Video Coding
Format profile : Main 10@L5.1@High
HDR format : SMPTE ST 2086, HDR10 compatible
Codec ID : V_MPEGH/ISO/HEVC
Duration : 1 h 30 min
Bit rate : 87.6 Mb/s
Width : 3 840 pixels
Height : 2 160 pixels
Display aspect ratio : 16:9
Frame rate mode : Constant
Frame rate : 23.976 (24000/1001) FPS
Color space : YUV
Chroma subsampling : 4:2:0 (Type 2)
Bit depth : 10 bits
Bits/(Pixel*Frame) : 0.441
Stream size : 55.6 GiB (98%)
Default : Yes
Forced : No
Color range : Limited
Color primaries : BT.2020
Transfer characteristics : PQ
Matrix coefficients : BT.2020 non-constant
Mastering display color primaries : BT.2020
Mastering display luminance : min: 0.0001 cd/m2, max: 1000 cd/m2
Maximum Content Light Level : 1000 cd/m2
Maximum Frame-Average Light Level : 400 cd/m2

Audio
ID : 2
Format : FLAC
Format/Info : Free Lossless Audio Codec: Codec ID : A_FLAC
Duration : 1 h 30 min
Bit rate mode : Variable
Bit rate : 1 460 kb/s
Channel(s) : 2 channels
Channel layout : L R
Sampling rate : 48.0 kHz
Frame rate : 11.719 FPS (4096 SPF)
Bit depth : 24 bits
Compression mode : Lossless
Stream size : 948 MiB (2%)
Writing library : libFLAC 1.2.1 (2007-09-17)
Language : English
Default : Yes
Forced : No
MD5 of the unencoded content : 4FC082E554BC0E3F5F16E52507591B3F

Text
ID : 3
Format : PGS
Muxing mode : zlib
Codec ID : S_HDMV/PGS
Codec ID/Info : Picture based subtitle format used on BDs/HD-DVDs
Duration : 1 h 26 min
Bit rate : 41.5 kb/s
Frame rate : 0.540 FPS
Count of elements : 2818
Stream size : 25.8 MiB (0%)
Language : English
Default : Yes
Forced : No

Menu
00:00:00.000 : Chapter 01
00:20:03.035 : Chapter 02
00:41:17.392 : Chapter 03
01:00:45.892 : Chapter 04
01:16:50.022 : Chapter 05

Files