Anchorman The Legend of Ron Burgundy 2004 2160p UHD Blu-ray Remux DV HDR HEVC DTS-HD MA 5 1-CiNEPHiLES

Ron Burgundy is San Diego's top rated newsman in the male dominated broadcasting of the 1970's, but that's all about to change when a new female employee with ambition to burn arrives in his office.

Year: 2004
Duration: 104 min
Release date: Friday 9th July 2004
Genre: Comedy, Romance

Rating

7/10
(79843 Votes)

0

Your Rating

Stars:
Will Ferrell, Christina Applegate, Paul Rudd, Steve Carell

General
Unique ID : 294355139347327899399522365653924439394 (0xDD72BCDAE96E82BC8EF6802FFCC3E562)
Complete name : Anchorman.The.Legend.of.Ron.Burgundy.2004.2160p.UHD.Blu-ray.Remux.DV.HDR.HEVC.DTS-HD.MA.5.1-CiNEPHiLES.mkv
Format : Matroska
Format version : Version 4
File size : 50.8 GiB
Duration : 1 h 34 min
Overall bit rate mode : Variable
Overall bit rate : 77.3 Mb/s
Frame rate : 23.976 FPS
Movie name : Anchorman: The Legend of Ron Burgundy (2004)
Encoded date : 2024-07-03 19:10:51 UTC
Writing application : mkvmerge v83.0 ('Circle Of Friends') 64-bit
Writing library : libebml v1.4.5 + libmatroska v1.7.1
IMDB : tt0357413
TMDB : movie/8699

Video
ID : 1
Format : HEVC
Format/Info : High Efficiency Video Coding
Format profile : Main 10@L5.1@High
HDR format : Dolby Vision, Version 1.0, dvhe.07.06, BL+EL+RPU, Blu-ray compatible / SMPTE ST 2086, HDR10 compatible
Codec ID : V_MPEGH/ISO/HEVC
Duration : 1 h 34 min
Bit rate : 72.5 Mb/s
Width : 3 840 pixels
Height : 2 160 pixels
Display aspect ratio : 16:9
Frame rate mode : Constant
Frame rate : 23.976 (24000/1001) FPS
Color space : YUV
Chroma subsampling : 4:2:0 (Type 2)
Bit depth : 10 bits
Bits/(Pixel*Frame) : 0.365
Stream size : 47.7 GiB (94%)
Default : Yes
Forced : No
Color range : Limited
Color primaries : BT.2020
Transfer characteristics : PQ
Matrix coefficients : BT.2020 non-constant
Mastering display color primaries : Display P3
Mastering display luminance : min: 0.0050 cd/m2, max: 4000 cd/m2
Maximum Content Light Level : 456 cd/m2
Maximum Frame-Average Light Level : 227 cd/m2
Source : Paramount Pictures CAN UHD Blu-ray (2024)

Audio #1
ID : 2
Format : DTS XLL
Format/Info : Digital Theater Systems
Commercial name : DTS-HD Master Audio
Codec ID : A_DTS
Duration : 1 h 34 min
Bit rate mode : Variable
Bit rate : 3 316 kb/s
Channel(s) : 6 channels
Channel layout : C L R Ls Rs LFE
Sampling rate : 48.0 kHz
Frame rate : 93.750 FPS (512 SPF)
Bit depth : 24 bits
Compression mode : Lossless
Stream size : 2.18 GiB (4%)
Language : English
Default : Yes
Forced : No
Source : Paramount Pictures CAN UHD Blu-ray (2024)

Audio #2
ID : 3
Format : AC-3
Format/Info : Audio Coding 3
Commercial name : Dolby Digital
Codec ID : A_AC3
Duration : 1 h 34 min
Bit rate mode : Constant
Bit rate : 224 kb/s
Channel(s) : 2 channels
Channel layout : L R
Sampling rate : 48.0 kHz
Frame rate : 31.250 FPS (1536 SPF)
Compression mode : Lossy
Stream size : 151 MiB (0%)
Title : Commentary with director Adam McKay and actor Will Ferrell
Language : English
Service kind : Complete Main
Default : No
Forced : No
Source : Paramount Pictures USA Blu-ray (2010)

Audio #3
ID : 4
Format : AC-3
Format/Info : Audio Coding 3
Commercial name : Dolby Digital
Codec ID : A_AC3
Duration : 1 h 34 min
Bit rate mode : Constant
Bit rate : 224 kb/s
Channel(s) : 2 channels
Channel layout : L R
Sampling rate : 48.0 kHz
Frame rate : 31.250 FPS (1536 SPF)
Compression mode : Lossy
Stream size : 151 MiB (0%)
Title : Commentary with director/writer Adam McKay; actor/writer Will Ferrell; musicians Lou Rawls and Kyle Gass; entertainer Andy Richter; and actors Paul Rudd, David Koechner, and Christina Applegate
Language : English
Service kind : Complete Main
Default : No
Forced : No
Source : Paramount Pictures USA Blu-ray (2010)

Text #1
ID : 5
Format : UTF-8
Codec ID : S_TEXT/UTF8
Codec ID/Info : UTF-8 Plain Text
Duration : 9 min 51 s
Bit rate : 5 b/s
Frame rate : 0.024 FPS
Count of elements : 14
Stream size : 410 Bytes (0%)
Title : Forced
Language : English (US)
Default : No
Forced : Yes
Source : Paramount Pictures CAN UHD Blu-ray (2024)

Text #2
ID : 6
Format : UTF-8
Codec ID : S_TEXT/UTF8
Codec ID/Info : UTF-8 Plain Text
Duration : 1 h 33 min
Bit rate : 79 b/s
Frame rate : 0.318 FPS
Count of elements : 1774
Stream size : 53.9 KiB (0%)
Language : English (US)
Default : No
Forced : No
Source : Amazon WEB-DL

Text #3
ID : 7
Format : UTF-8
Codec ID : S_TEXT/UTF8
Codec ID/Info : UTF-8 Plain Text
Duration : 1 h 33 min
Bit rate : 85 b/s
Frame rate : 0.351 FPS
Count of elements : 1964
Stream size : 58.5 KiB (0%)
Title : SDH
Language : English (US)
Default : No
Forced : No
Source : Amazon WEB-DL

Text #4
ID : 8
Format : PGS
Codec ID : S_HDMV/PGS
Codec ID/Info : Picture based subtitle format used on BDs/HD-DVDs
Duration : 15 min 3 s
Bit rate : 2 689 b/s
Frame rate : 0.033 FPS
Count of elements : 30
Stream size : 297 KiB (0%)
Title : Forced / PGS
Language : English (US)
Default : No
Forced : No
Source : Paramount Pictures CAN UHD Blu-ray (2024)

Text #5
ID : 9
Format : PGS
Codec ID : S_HDMV/PGS
Codec ID/Info : Picture based subtitle format used on BDs/HD-DVDs
Duration : 1 h 33 min
Bit rate : 53.9 kb/s
Frame rate : 0.555 FPS
Count of elements : 3108
Stream size : 36.0 MiB (0%)
Title : PGS
Language : English (US)
Default : No
Forced : No
Source : Paramount Pictures CAN UHD Blu-ray (2024)

Text #6
ID : 10
Format : PGS
Codec ID : S_HDMV/PGS
Codec ID/Info : Picture based subtitle format used on BDs/HD-DVDs
Duration : 1 h 33 min
Bit rate : 60.9 kb/s
Frame rate : 0.637 FPS
Count of elements : 3568
Stream size : 40.7 MiB (0%)
Title : SDH / PGS
Language : English (US)
Default : No
Forced : No
Source : Paramount Pictures CAN UHD Blu-ray (2024)

Text #7
ID : 11
Format : UTF-8
Codec ID : S_TEXT/UTF8
Codec ID/Info : UTF-8 Plain Text
Duration : 1 h 33 min
Bit rate : 111 b/s
Frame rate : 0.222 FPS
Count of elements : 1242
Stream size : 76.3 KiB (0%)
Language : Arabic
Default : No
Forced : No
Source : iTunes WEB-DL

Text #8
ID : 12
Format : UTF-8
Codec ID : S_TEXT/UTF8
Codec ID/Info : UTF-8 Plain Text
Duration : 1 h 33 min
Bit rate : 105 b/s
Frame rate : 0.303 FPS
Count of elements : 1701
Stream size : 72.3 KiB (0%)
Language : Bulgarian
Default : No
Forced : No
Source : iTunes WEB-DL

Text #9
ID : 13
Format : PGS
Codec ID : S_HDMV/PGS
Codec ID/Info : Picture based subtitle format used on BDs/HD-DVDs
Duration : 1 h 33 min
Bit rate : 42.0 kb/s
Frame rate : 0.598 FPS
Count of elements : 3360
Stream size : 28.1 MiB (0%)
Title : Traditional
Language : Cantonese (Hant)
Default : No
Forced : No
Source : Paramount Pictures EUR Blu-ray (2013)

Text #10
ID : 14
Format : PGS
Codec ID : S_HDMV/PGS
Codec ID/Info : Picture based subtitle format used on BDs/HD-DVDs
Duration : 1 h 33 min
Bit rate : 43.2 kb/s
Frame rate : 0.518 FPS
Count of elements : 2912
Stream size : 29.0 MiB (0%)
Language : Croatian
Default : No
Forced : No
Source : Paramount Pictures EUR Blu-ray (2013)

Text #11
ID : 15
Format : PGS
Codec ID : S_HDMV/PGS
Codec ID/Info : Picture based subtitle format used on BDs/HD-DVDs
Duration : 1 h 33 min
Bit rate : 47.1 kb/s
Frame rate : 0.568 FPS
Count of elements : 3190
Stream size : 31.6 MiB (0%)
Language : Danish
Default : No
Forced : No
Source : Paramount Pictures CAN UHD Blu-ray (2024)

Text #12
ID : 16
Format : PGS
Codec ID : S_HDMV/PGS
Codec ID/Info : Picture based subtitle format used on BDs/HD-DVDs
Duration : 1 h 33 min
Bit rate : 41.1 kb/s
Frame rate : 0.399 FPS
Count of elements : 2242
Stream size : 27.5 MiB (0%)
Language

Files