X-Men Days of Future Past 2014 The Rogue Cut 2160p MA WEB-DL DTS-HD MA 7 1 HDR H 265-FLUX

The X-Men send Wolverine to the past in a desperate effort to change history and prevent an event that results in doom for both humans and mutants.

Year: 2014
Duration: 131 min
Release date: Friday 23rd May 2014
Genre: Action, Adventure, Fantasy, Sci-Fi

Rating

8.8/10
(31519 Votes)

0

Your Rating

Stars:
Patrick Stewart, Ian McKellen, Hugh Jackman, James McAvoy

General
Unique ID : 116387459024394836164841537263261172291 (0x578F68C484895450BC48F4BF327FC243)
Complete name : X-Men.Days.of.Future.Past.2014.The.Rogue.Cut.2160p.MA.WEB-DL.DTS-HD.MA.7.1.HDR.H.265-FLUX.mkv
Format : Matroska
Format version : Version 4
File size : 31.5 GiB
Duration : 2 h 28 min
Overall bit rate mode : Variable
Overall bit rate : 30.3 Mb/s
Writing application : mkvmerge v78.0 ('Running') 64-bit
Writing library : libebml v1.4.4 + libmatroska v1.7.1

Video
ID : 1
Format : HEVC
Format/Info : High Efficiency Video Coding
Format profile : Main 10@L5@Main
HDR format : SMPTE ST 2086, HDR10 compatible
Codec ID : V_MPEGH/ISO/HEVC
Duration : 2 h 28 min
Bit rate : 24.5 Mb/s
Width : 3 840 pixels
Height : 2 160 pixels
Display aspect ratio : 16:9
Frame rate mode : Constant
Frame rate : 23.976 (24000/1001) FPS
Color space : YUV
Chroma subsampling : 4:2:0 (Type 2)
Bit depth : 10 bits
Bits/(Pixel*Frame) : 0.123
Stream size : 25.4 GiB (81%)
Language : English
Default : Yes
Forced : No
Color range : Limited
Color primaries : BT.2020
Transfer characteristics : PQ
Matrix coefficients : BT.2020 non-constant
Mastering display color primaries : Display P3
Mastering display luminance : min: 0.0050 cd/m2, max: 1000 cd/m2

Audio #1
ID : 2
Format : DTS ES XLL
Format/Info : Digital Theater Systems
Commercial name : DTS-HD Master Audio
Codec ID : A_DTS
Duration : 2 h 28 min
Bit rate mode : Variable
Bit rate : 5 390 kb/s
Channel(s) : 8 channels
Channel layout : C L R Ls Rs LFE Lb Rb
Sampling rate : 48.0 kHz
Frame rate : 93.750 FPS (512 SPF)
Bit depth : 24 bits
Compression mode : Lossless
Stream size : 5.60 GiB (18%)
Language : English
Default : Yes
Forced : No

Audio #2
ID : 3
Format : AC-3
Format/Info : Audio Coding 3
Commercial name : Dolby Digital
Codec ID : A_AC3
Duration : 2 h 28 min
Bit rate mode : Constant
Bit rate : 224 kb/s
Channel(s) : 2 channels
Channel layout : L R
Sampling rate : 48.0 kHz
Frame rate : 31.250 FPS (1536 SPF)
Compression mode : Lossy
Stream size : 238 MiB (1%)
Title : Commentary with Director: Bryan Singer and Screenplay Writer: Simon Kinberg
Language : English
Service kind : Complete Main
Default : No
Forced : No

Audio #3
ID : 4
Format : AC-3
Format/Info : Audio Coding 3
Commercial name : Dolby Digital
Codec ID : A_AC3
Duration : 2 h 28 min
Bit rate mode : Constant
Bit rate : 224 kb/s
Channel(s) : 2 channels
Channel layout : L R
Sampling rate : 48.0 kHz
Frame rate : 31.250 FPS (1536 SPF)
Compression mode : Lossy
Stream size : 238 MiB (1%)
Title : Commentary with Director: Bryan Singer and Film Editor & Composer: John Ottman
Language : English
Service kind : Complete Main
Default : No
Forced : No

Text #1
ID : 5
Format : UTF-8
Codec ID : S_TEXT/UTF8
Codec ID/Info : UTF-8 Plain Text
Duration : 17 min 59 s
Bit rate : 5 b/s
Count of elements : 27
Stream size : 702 Bytes (0%)
Title : Forced
Language : English
Default : No
Forced : Yes

Text #2
ID : 6
Format : UTF-8
Codec ID : S_TEXT/UTF8
Codec ID/Info : UTF-8 Plain Text
Duration : 2 h 18 min
Bit rate : 47 b/s
Count of elements : 1775
Stream size : 47.6 KiB (0%)
Language : English
Default : No
Forced : No

Text #3
ID : 7
Format : UTF-8
Codec ID : S_TEXT/UTF8
Codec ID/Info : UTF-8 Plain Text
Duration : 2 h 27 min
Bit rate : 53 b/s
Count of elements : 2232
Stream size : 58.1 KiB (0%)
Title : SDH
Language : English
Default : No
Forced : No

Text #4
ID : 8
Format : UTF-8
Codec ID : S_TEXT/UTF8
Codec ID/Info : UTF-8 Plain Text
Duration : 2 h 27 min
Bit rate : 41 b/s
Count of elements : 1478
Stream size : 44.8 KiB (0%)
Title : Latin American
Language : Spanish
Default : No
Forced : No

Menu
00:00:01.000 : en:Chapter 01
00:03:33.000 : en:Chapter 02
00:08:04.000 : en:Chapter 03
00:10:34.000 : en:Chapter 04
00:15:11.000 : en:Chapter 05
00:18:44.000 : en:Chapter 06
00:22:43.000 : en:Chapter 07
00:24:38.000 : en:Chapter 08
00:29:05.000 : en:Chapter 09
00:33:03.000 : en:Chapter 10
00:37:11.000 : en:Chapter 11
00:38:49.000 : en:Chapter 12
00:41:06.000 : en:Chapter 13
00:43:50.000 : en:Chapter 14
00:50:05.000 : en:Chapter 15
00:52:07.000 : en:Chapter 16
00:55:11.000 : en:Chapter 17
00:57:56.000 : en:Chapter 18
01:01:04.000 : en:Chapter 19
01:04:01.000 : en:Chapter 20
01:06:44.000 : en:Chapter 21
01:10:22.000 : en:Chapter 22
01:13:00.000 : en:Chapter 23
01:16:28.000 : en:Chapter 24
01:18:48.000 : en:Chapter 25
01:20:44.000 : en:Chapter 26
01:22:46.000 : en:Chapter 27
01:28:07.000 : en:Chapter 28
01:31:19.000 : en:Chapter 29
01:33:50.000 : en:Chapter 30
01:39:22.000 : en:Chapter 31
01:42:10.000 : en:Chapter 32
01:44:32.000 : en:Chapter 33
01:49:13.000 : en:Chapter 34
01:51:00.000 : en:Chapter 35
01:54:54.000 : en:Chapter 36
01:59:15.000 : en:Chapter 37
02:02:13.000 : en:Chapter 38
02:04:30.000 : en:Chapter 39
02:08:16.000 : en:Chapter 40
02:13:27.000 : en:Chapter 41
02:16:57.000 : en:Chapter 42
02:19:19.000 : en:Chapter 43
02:27:33.000 : en:Chapter 44

Files