Space Cadet 2024 2160p AMZN WEB-DL DDP5 1 H 265-FLUX

Rex, a Florida party girl, turns out to be the only hope for the NASA space program after a fluke puts her in training with other candidates who may have better resumés, but don't have her smarts, heart, and moxie.

Year: 2024
Duration: 110 min
Release date: Thursday 4th July 2024
Genre: Comedy

0

Your Rating

Stars:
Emma Roberts, Tom Hopper, Poppy Liu, Gabrielle Union, Kuhoo Verma, Desi Lydic, Sebastián Yatra, Sam Robards

General
Unique ID : 115184403587970835273084533883596040038 (0x56A7B58E1BA4DFCF4F4FE847EEBDE766)
Complete name : Space.Cadet.2024.2160p.AMZN.WEB-DL.DDP5.1.H.265-FLUX.mkv
Format : Matroska
Format version : Version 4
File size : 11.8 GiB
Duration : 1 h 50 min
Overall bit rate : 15.2 Mb/s
Writing application : mkvmerge v85.0 ('Shame For You') 64-bit
Writing library : libebml v1.4.5 + libmatroska v1.7.1

Video
ID : 1
Format : HEVC
Format/Info : High Efficiency Video Coding
Format profile : Main@L5@Main
Codec ID : V_MPEGH/ISO/HEVC
Duration : 1 h 50 min
Bit rate : 14.6 Mb/s
Width : 3 840 pixels
Height : 1 920 pixels
Display aspect ratio : 2.000
Frame rate mode : Constant
Frame rate : 23.976 (24000/1001) FPS
Color space : YUV
Chroma subsampling : 4:2:0
Bit depth : 8 bits
Bits/(Pixel*Frame) : 0.083
Stream size : 11.3 GiB (96%)
Language : English
Default : Yes
Forced : No
Color range : Limited
Color primaries : BT.709
Transfer characteristics : BT.709
Matrix coefficients : BT.709

Audio
ID : 2
Format : E-AC-3
Format/Info : Enhanced AC-3
Commercial name : Dolby Digital Plus
Codec ID : A_EAC3
Duration : 1 h 50 min
Bit rate mode : Constant
Bit rate : 640 kb/s
Channel(s) : 6 channels
Channel layout : L R C LFE Ls Rs
Sampling rate : 48.0 kHz
Frame rate : 31.250 FPS (1536 SPF)
Compression mode : Lossy
Stream size : 507 MiB (4%)
Language : English
Service kind : Complete Main
Default : Yes
Forced : No

Text #1
ID : 3
Format : UTF-8
Codec ID : S_TEXT/UTF8
Codec ID/Info : UTF-8 Plain Text
Duration : 1 min 1 s
Bit rate : 33 b/s
Count of elements : 6
Stream size : 257 Bytes (0%)
Title : Forced
Language : English
Default : Yes
Forced : Yes

Text #2
ID : 4
Format : UTF-8
Codec ID : S_TEXT/UTF8
Codec ID/Info : UTF-8 Plain Text
Duration : 1 h 40 min
Bit rate : 74 b/s
Count of elements : 1694
Stream size : 55.0 KiB (0%)
Language : English
Default : No
Forced : No

Text #3
ID : 5
Format : UTF-8
Codec ID : S_TEXT/UTF8
Codec ID/Info : UTF-8 Plain Text
Duration : 1 h 40 min
Bit rate : 80 b/s
Count of elements : 1819
Stream size : 59.2 KiB (0%)
Title : SDH
Language : English
Default : No
Forced : No

Text #4
ID : 6
Format : UTF-8
Codec ID : S_TEXT/UTF8
Codec ID/Info : UTF-8 Plain Text
Duration : 1 h 48 min
Bit rate : 110 b/s
Count of elements : 1537
Stream size : 88.3 KiB (0%)
Language : Arabic
Default : No
Forced : No

Text #5
ID : 7
Format : UTF-8
Codec ID : S_TEXT/UTF8
Codec ID/Info : UTF-8 Plain Text
Duration : 1 h 48 min
Bit rate : 64 b/s
Count of elements : 1529
Stream size : 51.0 KiB (0%)
Language : Czech
Default : No
Forced : No

Text #6
ID : 8
Format : UTF-8
Codec ID : S_TEXT/UTF8
Codec ID/Info : UTF-8 Plain Text
Duration : 1 h 48 min
Bit rate : 60 b/s
Count of elements : 1485
Stream size : 48.4 KiB (0%)
Language : Danish
Default : No
Forced : No

Text #7
ID : 9
Format : UTF-8
Codec ID : S_TEXT/UTF8
Codec ID/Info : UTF-8 Plain Text
Duration : 1 h 48 min
Bit rate : 64 b/s
Count of elements : 1519
Stream size : 51.6 KiB (0%)
Language : German
Default : No
Forced : No

Text #8
ID : 10
Format : UTF-8
Codec ID : S_TEXT/UTF8
Codec ID/Info : UTF-8 Plain Text
Duration : 1 h 48 min
Bit rate : 112 b/s
Count of elements : 1534
Stream size : 89.5 KiB (0%)
Language : Greek
Default : No
Forced : No

Text #9
ID : 11
Format : UTF-8
Codec ID : S_TEXT/UTF8
Codec ID/Info : UTF-8 Plain Text
Duration : 1 h 48 min
Bit rate : 64 b/s
Count of elements : 1525
Stream size : 51.3 KiB (0%)
Language : Spanish
Default : No
Forced : No

Text #10
ID : 12
Format : UTF-8
Codec ID : S_TEXT/UTF8
Codec ID/Info : UTF-8 Plain Text
Duration : 1 h 48 min
Bit rate : 58 b/s
Count of elements : 1511
Stream size : 46.8 KiB (0%)
Language : Finnish
Default : No
Forced : No

Text #11
ID : 13
Format : UTF-8
Codec ID : S_TEXT/UTF8
Codec ID/Info : UTF-8 Plain Text
Duration : 1 h 48 min
Bit rate : 66 b/s
Count of elements : 1483
Stream size : 53.1 KiB (0%)
Title : Canadian
Language : French
Default : No
Forced : No

Text #12
ID : 14
Format : UTF-8
Codec ID : S_TEXT/UTF8
Codec ID/Info : UTF-8 Plain Text
Duration : 1 h 48 min
Bit rate : 63 b/s
Count of elements : 1514
Stream size : 50.3 KiB (0%)
Language : French
Default : No
Forced : No

Text #13
ID : 15
Format : UTF-8
Codec ID : S_TEXT/UTF8
Codec ID/Info : UTF-8 Plain Text
Duration : 1 h 48 min
Bit rate : 100 b/s
Count of elements : 1536
Stream size : 80.0 KiB (0%)
Language : Hebrew
Default : No
Forced : No

Text #14
ID : 16
Format : UTF-8
Codec ID : S_TEXT/UTF8
Codec ID/Info : UTF-8 Plain Text
Duration : 1 h 48 min
Bit rate : 167 b/s
Count of elements : 1536
Stream size : 133 KiB (0%)
Language : Hindi
Default : No
Forced : No

Text #15
ID : 17
Format : UTF-8
Codec ID : S_TEXT/UTF8
Codec ID/Info : UTF-8 Plain Text
Duration : 1 h 48 min
Bit rate : 65 b/s
Count of elements : 1519
Stream size : 52.6 KiB (0%)
Language : Hungarian
Default : No
Forced : No

Text #16
ID : 18
Format : UTF-8
Codec ID : S_TEXT/UTF8
Codec ID/Info : UTF-8 Plain Text
Duration : 1 h 48 min
Bit rate : 61 b/s
Count of elements : 1528
Stream size : 49.2 KiB (0%)
Language : Indonesian
Default : No
Forced : No

Text #17
ID : 19
Format : UTF-8
Codec ID : S_TEXT/UTF8
Codec ID/Info : UTF-8 Plain Text
Duration : 1 h 48 min
Bit rate : 65 b/s
Count of elements : 1525
Stream size : 51.9 KiB (0%)
Language : Italian
Default : No
Forced : No

Text #18
ID : 20
Format : UTF-8
Codec ID : S_TEXT/UTF8
Codec ID/Info : UTF-8 Plain Text
Duration : 1 h 48 min
Bit rate : 73 b/s
Count of elements : 1533
Stream size : 58.7 KiB (0%)
Language : Korean
Default : No
Forced : No

Text #19
ID : 21
Format : UTF-8
Codec ID : S_TEXT/UTF8
Codec ID/Info : UTF-8 Plain Text
Duration : 1 h 48 min
Bit rate : 66 b/s
Count of elements : 1524
Stream size : 53.3 KiB (0%)
Language : Malay
Default : No
Forced : No

Text #20
ID : 22
Format : UTF-8
Codec ID : S_TEXT/UTF8
Codec ID/Info : UTF-8 Plain Text
Duration : 1 h 48 min
Bit rate : 60 b/s
Count of elements : 1522
Stream size : 48.6 KiB (0%)
Language : Norwegian Bokmal
Default : No
Forced : No

Text #21
ID : 23
Format : UTF-8
Codec ID : S_TEXT/UTF8
Codec ID/Info : UTF-8 Plain Text
Duration : 1 h 48 min
Bit rate : 59 b/s
Count of elements : 1509
Stream size : 47.2 KiB (0%)
Language : Dutch
Default : No
Forced : No

Text #22
ID : 24
Format : UTF-8
Codec ID : S_TEXT/UTF8
Codec ID/Info : UTF-8 Plain Text
Duration : 1 h 48 min
Bit rate : 61 b/s
Count of elements : 1520
Stream size : 48.7 KiB (0%)
Language : Polish
Default : No
Forced : No

Text #23
ID : 25
Format : UTF-8
Codec ID : S_TEXT/UTF8
Codec ID/Info : UTF-8 Plain Text
Duration : 1 h 48 min
Bit rate : 60 b/s
Count of elements : 1529
Stream size : 48.4 KiB (0%)
Title : Brazilian
Language : Portuguese
Default : No
Forced : No

Text #24
ID : 26
Format : UTF-8
Codec ID : S_TEXT/UTF8
Codec ID/Info : UTF-8 Plain Text
Duration : 1 h 48 min
Bit rate : 67 b/s
Count of elements : 1522
Stream size : 54.1 KiB (0%)
Language : Romanian
Default : No
Forced : No

Text #25
ID : 27
Format : UTF-8
Codec ID : S_TEXT/UTF8
Codec ID/Info : UTF-8 Plain Text
Duration : 1 h 48 min
Bit rate : 64 b/s
Count of elements : 1524
Stream size : 51.4 KiB (0%)
Language : Swedish
Default : No
Forced : No

Text #26
ID : 28
Format : UTF-8
Codec ID : S_TEXT/UTF8
Codec ID/Info : UTF-8 Plain Text
Duration : 1 h 48 min
Bit rate : 165 b/s
Count of elements : 1536
Stream size : 132 KiB (0%)
Language : Thai
Default : No
Forced : No

Text #27
ID : 29
Format : UTF-8
Codec ID : S_TEXT/UTF8
Codec ID/Info : UTF-8 Plain Text
Duration : 1 h 48 min
Bit rate : 62 b/s
Count of elements : 1528
Stream size : 49.8 KiB (0%)
Language : Turkish
Default : No
Forced : No

Text #28
ID : 30
Format : UTF-8
Codec ID : S_TEXT/UTF8
Codec ID/Info : UTF-8 Plain Text
Duration : 1 h 48 min
Bit rate : 58 b/s
Count of elements : 1535
Stream size : 46.6 KiB (0%)
Title : Simplified
Language : Chinese
Default : No
Forced : No

Text #29
ID : 31
Format : UTF-8
Codec ID : S_TEXT/UTF8
Codec ID/Info : UTF-8 Plain Text
Duration : 1 h 48 min
Bit rate : 59 b/s
Count of elements : 1535
Stream size : 47.1 KiB (0%)
Title : Traditional
Language : Chinese
Default : No
Forced : No

Menu
00:00:00.000 : en:Studio Logo
00:00:38.000 : en:Scene 1
00:02:07.000 : en:Scene 2
00:03:10.000 : en:Title Sequence
00:03:14.000 : en:Scene 3
00:05:45.000 : en:Scene 4
00:06:53.000 : en:Scene 5
00:08:26.000 : en:Scene 6
00:10:05.000 : en:Scene 7
00:13:38.000 : en:Scene 8
00:14:49.000 : en:Scene 9
00:15:46.000 : en:Scene 10
00:18:00.000 : en:Scene 11
00:19:37.000 : en:Scene 12
00:21:09.000 : en:Scene 13
00:21:59.000 : en:Scene 14
00:23:04.000 : en:Scene 15
00:24:24.000 : en:Scene 16
00:27:33.000 : en:Scene 17
00:28:22.000 : en:Scene 18
00:31:36.000 : en:Scene 19
00:32:56.000 : en:Scene 20
00:33:41.000 : en:Scene 21
00:34:18.000 : en:Scene 22
00:34:46.000 : en:Scene 23
00:37:25.000 : en:Scene 24
00:40:52.000 : en:Scene 25
00:42:31.000 : en:Scene 26
00:45:38.000 : en:Scene 27
00:46:55.000 : en:Scene 28
00:49:07.000 : en:Scene 29
00:49:50.000 : en:Scene 30
00:50:44.000 : en:Scene 31
00:52:32.000 : en:Scene 32
00:53:41.000 : en:Scene 33
00:53:59.000 : en:Scene 34
00:54:35.000 : en:Scene 35
00:55:41.000 : en:Scene 36
00:58:19.000 : en:Scene 37
00:59:04.000 : en:Scene 38
00:59:58.000 : en:Scene 39
01:03:31.000 : en:Scene 40
01:05:20.000 : en:Scene 41
01:07:30.000 : en:Scene 42
01:10:07.000 : en:Scene 43
01:10:51.000 : en:Scene 44
01:11:43.000 : en:Scene 45
01:13:05.000 : en:Scene 46
01:14:07.000 : en:Scene 47
01:16:42.000 : en:Scene 48
01:17:59.000 : en:Scene 49
01:18:45.000 : en:Scene 50
01:19:20.000 : en:Scene 51
01:21:19.000 : en:Scene 52
01:22:46.000 : en:Scene 53
01:25:25.000 : en:Scene 54
01:26:10.000 : en:Scene 55
01:29:00.000 : en:Scene 56
01:30:08.000 : en:Scene 57
01:30:44.000 : en:Scene 58
01:31:46.000 : en:Scene 59
01:32:26.000 : en:Scene 60
01:33:19.000 : en:Scene 61
01:34:13.000 : en:Scene 62
01:34:46.000 : en:Scene 63
01:35:32.000 : en:Scene 64
01:36:12.000 : en:Scene 65
01:36:55.000 : en:Scene 66
01:37:26.000 : en:Scene 67
01:38:27.000 : en:Scene 68
01:39:08.000 : en:Scene 69
01:39:54.000 : en:Scene 70
01:41:16.000 : en:End Credits

Files