The Ministry of Ungentlemanly Warfare 2024 UHD BluRay 2160p Hybrid REMUX DV HDR TrueHD Atmos 7 1 HEVC REMUX-elackops

The British military recruits a small group of highly skilled soldiers to strike against German forces behind enemy lines during World War II.

Year: 2024
Duration: 120 min
Release date: Wednesday 17th April 2024
Genre: Action, Drama, War

Rating

7.3/10
(9341 Votes)

0

Your Rating

Stars:
Henry Cavill, Alan Ritchson, Alex Pettyfer, Eiza González, Babs Olusanmokun, Cary Elwes, Hero Fiennes Tiffin, Henry Golding

Format : Matroska
Format version : Version 4
File size : 69.7 GiB
Duration : 2 h 0 min
Overall bit rate mode : Variable
Overall bit rate : 82.9 Mb/s
Frame rate : 23.976 FPS
Movie name : The Ministry of Ungentlemanly Warfare (2024)
Writing application : Lavf61.4.100
Writing library : Lavf61.4.100
ErrorDetectionType : Per level 1
IMDB : tt5177120
TMDB : movie/799583

Video
ID : 1
Format : HEVC
Format/Info : High Efficiency Video Coding
Format profile : Main 10@L5.1@High
HDR format : Dolby Vision, Version 1.0, Profile 8.1, dvhe.08.06, BL+RPU, no metadata compression, HDR10 compatible / SMPTE ST 2086, Version HDR10, HDR10 compatible
Codec ID : V_MPEGH/ISO/HEVC
Duration : 2 h 0 min
Bit rate : 76.3 Mb/s
Width : 3 840 pixels
Height : 2 160 pixels
Display aspect ratio : 16:9
Frame rate mode : Constant
Frame rate : 23.976 (24000/1001) FPS
Color space : YUV
Chroma subsampling : 4:2:0 (Type 2)
Bit depth : 10 bits
Bits/(Pixel*Frame) : 0.384
Stream size : 64.2 GiB (92%)
Title : Ministry.of.Ungentlemanly.Warfare.2024.UHD.BluRay.2160p.TrueHD.Atmos.7.1.HEVC.REMUX-FraMeSToR_converted.hevc#:dvp=8.1:xps_inband:hdr=none@GPAC2.4-rev0-g5d70253a-master
Default : Yes
Forced : No
Color range : Limited
Color primaries : BT.2020
Transfer characteristics : PQ
Matrix coefficients : BT.2020 non-constant
Mastering display color primaries : Display P3
Mastering display luminance : min: 0.0001 cd/m2, max: 1000 cd/m2
Maximum Content Light Level : 833 cd/m2
Maximum Frame-Average Light Level : 227 cd/m2
VENDOR_ID : [0][0][0][0]

Audio #1
ID : 2
Format : MLP FBA 16-ch
Format/Info : Meridian Lossless Packing FBA with 16-channel presentation
Commercial name : Dolby TrueHD with Dolby Atmos
Codec ID : A_TRUEHD
Duration : 2 h 0 min
Bit rate mode : Variable
Bit rate : 4 179 kb/s
Maximum bit rate : 7 200 kb/s
Channel(s) : 8 channels
Channel layout : L R C LFE Ls Rs Lb Rb
Sampling rate : 48.0 kHz
Frame rate : 1 200.000 FPS (40 SPF)
Bit depth : 24 bits
Compression mode : Lossless
Stream size : 3.51 GiB (5%)
Title : TrueHD Atmos 7.1
Language : English
Default : Yes
Forced : No
Number of dynamic objects : 11
Bed channel count : 1 channel
Bed channel configuration : LFE

Audio #2
ID : 3
Format : AC-3
Format/Info : Audio Coding 3
Commercial name : Dolby Digital
Codec ID : A_AC3
Duration : 2 h 0 min
Bit rate mode : Constant
Bit rate : 640 kb/s
Channel(s) : 6 channels
Channel layout : L R C LFE Ls Rs
Sampling rate : 48.0 kHz
Frame rate : 31.250 FPS (1536 SPF)
Bit depth : 32 bits
Compression mode : Lossy
Stream size : 551 MiB (1%)
Title : AC-3 5.1
Language : English
Service kind : Complete Main
Default : No
Forced : No
Dialog Normalization : -31 dB
compr : -0.28 dB
cmixlev : -3.0 dB
surmixlev : -3 dB
dmixmod : Lo/Ro
ltrtcmixlev : -3.0 dB
ltrtsurmixlev : -3.0 dB
lorocmixlev : -3.0 dB
lorosurmixlev : -3.0 dB
dialnorm_Average : -31 dB
dialnorm_Minimum : -31 dB
dialnorm_Maximum : -31 dB

Text #1
ID : 4
Format : PGS
Codec ID : S_HDMV/PGS
Codec ID/Info : Picture based subtitle format used on BDs/HD-DVDs
Duration : 1 h 48 min
Bit rate : 38.2 kb/s
Frame rate : 0.402 FPS
Count of elements : 2626
Stream size : 29.3 MiB (0%)
Title : English
Language : English
Default : Yes
Forced : No

Text #2
ID : 5
Format : PGS
Codec ID : S_HDMV/PGS
Codec ID/Info : Picture based subtitle format used on BDs/HD-DVDs
Duration : 2 h 0 min
Bit rate : 51.1 kb/s
Frame rate : 0.520 FPS
Count of elements : 3744
Stream size : 43.6 MiB (0%)
Title : English (SDH)
Language : English
Default : No
Forced : No

Text #3
ID : 6
Format : PGS
Codec ID : S_HDMV/PGS
Codec ID/Info : Picture based subtitle format used on BDs/HD-DVDs
Duration : 1 h 53 min
Bit rate : 36.4 kb/s
Frame rate : 0.400 FPS
Count of elements : 2724
Stream size : 29.4 MiB (0%)
Title : Spanish (Latin American)
Language : Spanish
Default : No
Forced : No

Files