Money Heist (2017) S05 NF WEBRip EAC3 5 1 1080p x265-iVy

A group of very peculiar robbers have assaulted the Factory of Moneda and Timbre to carry out the most perfect robbery in the history of Spain and taking home 2,400 million euros.

Genre: Thriller
Stars: Fernando Soto, Juan Fernández, Itziar Ituño, Úrsula Corberó, Anna Gras, Pedro Alonso, Fran Morcillo, Alba Flores, María Pedraza, Paco Tous, Enrique Arce, Darko Peric, Esther Acebo, Roberto García Ruiz, Jaime Lorente, Miguel Herrán, Álvaro Morte

General
Unique ID : 314365331209918575224320203402903702099 (0xEC808F7BF947E02E1979D68964D24A53)
Complete name : Money.Heist.S05E01.The.End.of.the.Road.EAC3.5.1.1080p.WEBRip.x265-iVy.mkv
Format : Matroska
Format version : Version 4
File size : 1.04 GiB
Duration : 49 min 24 s
Overall bit rate : 3 019 kb/s
Frame rate : 24.000 FPS
Encoded date : 2024-05-03 00:11:24 UTC
Writing application : HandBrake 1.7.3 2024021000
Writing library : Lavf60.16.100
ErrorDetectionType : Per level 1

Video
ID : 1
Format : HEVC
Format/Info : High Efficiency Video Coding
Format profile : Main@L4@Main
Codec ID : V_MPEGH/ISO/HEVC
Duration : 49 min 24 s
Bit rate : 1 423 kb/s
Width : 1 920 pixels
Height : 1 080 pixels
Display aspect ratio : 16:9
Frame rate mode : Constant
Frame rate : 24.000 FPS
Color space : YUV
Chroma subsampling : 4:2:0 (Type 0)
Bit depth : 8 bits
Bits/(Pixel*Frame) : 0.029
Stream size : 503 MiB (47%)
Writing library : x265 3.5+1-f0c1022b6:[Windows][GCC 13.2.0][64 bit] 8bit+10bit+12bit
Encoding settings : cpuid=1111039 / frame-threads=5 / numa-pools=32 / wpp / no-pmode / no-pme / no-psnr / no-ssim / log-level=2 / input-csp=1 / input-res=1920x1080 / interlace=0 / total-frames=0 / level-idc=0 / high-tier=1 / uhd-bd=0 / ref=4 / no-allow-non-conformance / no-repeat-headers / annexb / no-aud / no-eob / no-eos / no-hrd / info / hash=0 / temporal-layers=0 / open-gop / min-keyint=24 / keyint=240 / gop-lookahead=0 / bframes=4 / b-adapt=2 / b-pyramid / bframe-bias=0 / rc-lookahead=25 / lookahead-slices=4 / scenecut=40 / no-hist-scenecut / radl=0 / no-splice / no-intra-refresh / ctu=64 / min-cu-size=8 / rect / no-amp / max-tu-size=32 / tu-inter-depth=1 / tu-intra-depth=1 / limit-tu=0 / rdoq-level=2 / dynamic-rd=0.00 / no-ssim-rd / signhide / no-tskip / nr-intra=0 / nr-inter=0 / no-constrained-intra / strong-intra-smoothing / max-merge=3 / limit-refs=3 / limit-modes / me=3 / subme=3 / merange=57 / temporal-mvp / no-frame-dup / no-hme / weightp / no-weightb / no-analyze-src-pics / deblock=0:0 / sao / no-sao-non-deblock / rd=4 / selective-sao=4 / no-early-skip / rskip / no-fast-intra / no-tskip-fast / no-cu-lossless / no-b-intra / no-splitrd-skip / rdpenalty=0 / psy-rd=2.00 / psy-rdoq=1.00 / no-rd-refine / no-lossless / cbqpoffs=0 / crqpoffs=0 / rc=crf / crf=23.0 / qcomp=0.60 / qpstep=4 / stats-write=0 / stats-read=0 / ipratio=1.40 / pbratio=1.30 / aq-mode=2 / aq-strength=1.00 / cutree / zone-count=0 / no-strict-cbr / qg-size=32 / no-rc-grain / qpmax=69 / qpmin=0 / no-const-vbv / sar=1 / overscan=0 / videoformat=5 / range=0 / colorprim=1 / transfer=1 / colormatrix=1 / chromaloc=1 / chromaloc-top=0 / chromaloc-bottom=0 / display-window=0 / cll=0,0 / min-luma=0 / max-luma=255 / log2-max-poc-lsb=8 / vui-timing-info / vui-hrd-info / slices=1 / no-opt-qp-pps / no-opt-ref-list-length-pps / no-multi-pass-opt-rps / scenecut-bias=0.05 / no-opt-cu-delta-qp / no-aq-motion / no-hdr10 / no-hdr10-opt / no-dhdr10-opt / no-idr-recovery-sei / analysis-reuse-level=0 / analysis-save-reuse-level=0 / analysis-load-reuse-level=0 / scale-factor=0 / refine-intra=0 / refine-inter=0 / refine-mv=1 / refine-ctu-distortion=0 / no-limit-sao / ctu-info=0 / no-lowpass-dct / refine-analysis-type=0 / copy-pic=1 / max-ausize-factor=1.0 / no-dynamic-refine / no-single-sei / no-hevc-aq / no-svt / no-field / qp-adaptation-range=1.00 / scenecut-aware-qp=0conformance-window-offsets / right=0 / bottom=0 / decoder-max-rate=0 / no-vbv-live-multi-pass / no-mcstf / no-sbrc
Default : Yes
Forced : No
Color range : Limited
Color primaries : BT.709
Transfer characteristics : BT.709
Matrix coefficients : BT.709

Audio #1
ID : 2
Format : E-AC-3 JOC
Format/Info : Enhanced AC-3 with Joint Object Coding
Commercial name : Dolby Digital Plus with Dolby Atmos
Codec ID : A_EAC3
Duration : 49 min 24 s
Bit rate mode : Constant
Bit rate : 768 kb/s
Channel(s) : 6 channels
Channel layout : L R C LFE Ls Rs
Sampling rate : 48.0 kHz
Frame rate : 31.250 FPS (1536 SPF)
Compression mode : Lossy
Stream size : 271 MiB (25%)
Language : English
Service kind : Complete Main
Default : Yes
Forced : No
Complexity index : 16
Number of dynamic objects : 15
Bed channel count : 1 channel
Bed channel configuration : LFE

Audio #2
ID : 3
Format : E-AC-3 JOC
Format/Info : Enhanced AC-3 with Joint Object Coding
Commercial name : Dolby Digital Plus with Dolby Atmos
Codec ID : A_EAC3
Duration : 49 min 24 s
Bit rate mode : Constant
Bit rate : 768 kb/s
Channel(s) : 6 channels
Channel layout : L R C LFE Ls Rs
Sampling rate : 48.0 kHz
Frame rate : 31.250 FPS (1536 SPF)
Compression mode : Lossy
Stream size : 271 MiB (25%)
Language : Spanish
Service kind : Complete Main
Default : No
Forced : No
Complexity index : 16
Number of dynamic objects : 15
Bed channel count : 1 channel
Bed channel configuration : LFE

Text #1
ID : 4
Format : ASS
Codec ID : S_TEXT/ASS
Codec ID/Info : Advanced Sub Station Alpha
Duration : 47 min 16 s
Compression mode : Lossless
Default : No
Forced : No

Text #2
ID : 5
Format : ASS
Codec ID : S_TEXT/ASS
Codec ID/Info : Advanced Sub Station Alpha
Duration : 45 min 11 s
Compression mode : Lossless
Language : Arabic
Default : No
Forced : No

Text #3
ID : 6
Format : ASS
Codec ID : S_TEXT/ASS
Codec ID/Info : Advanced Sub Station Alpha
Duration : 47 min 16 s
Compression mode : Lossless
Title : Simplified
Language : Chinese
Default : No
Forced : No

Text #4
ID : 7
Format : ASS
Codec ID : S_TEXT/ASS
Codec ID/Info : Advanced Sub Station Alpha
Duration : 47 min 16 s
Compression mode : Lossless
Title : Traditional
Language : Chinese
Default : No
Forced : No

Text #5
ID : 8
Format : ASS
Codec ID : S_TEXT/ASS
Codec ID/Info : Advanced Sub Station Alpha
Duration : 47 min 16 s
Compression mode : Lossless
Title : Croatian
Language : scr
Default : No
Forced : No

Text #6
ID : 9
Format : ASS
Codec ID : S_TEXT/ASS
Codec ID/Info : Advanced Sub Station Alpha
Duration : 47 min 16 s
Compression mode : Lossless
Language : Czech
Default : No
Forced : No

Text #7
ID : 10
Format : ASS
Codec ID : S_TEXT/ASS
Codec ID/Info : Advanced Sub Station Alpha
Duration : 47 min 16 s
Compression mode : Lossless
Language : Danish
Default : No
Forced : No

Text #8
ID : 11
Format : ASS
Codec ID : S_TEXT/ASS
Codec ID/Info : Advanced Sub Station Alpha
Duration : 45 min 11 s
Compression mode : Lossless
Language : Dutch
Default : No
Forced : No

Text #9
ID : 12
Format : ASS
Codec ID : S_TEXT/ASS
Codec ID/Info : Advanced Sub Station Alpha
Duration : 47 min 16 s
Compression mode : Lossless
Language : English
Default : No
Forced : No

Text #10
ID : 13
Format : ASS
Codec ID : S_TEXT/ASS
Codec ID/Info : Advanced Sub Station Alpha
Duration : 47 min 16 s
Compression mode : Lossless
Language : Finnish
Default : No
Forced : No

Text #11
ID : 14
Format : ASS
Codec ID : S_TEXT/ASS
Codec ID/Info : Advanced Sub Station Alpha
Duration : 47 min 16 s
Compression mode : Lossless
Language : French
Default : No
Forced : No

Text #12
ID : 15
Format : ASS
Codec ID : S_TEXT/ASS
Codec ID/Info : Advanced Sub Station Alpha
Duration : 47 min 16 s
Compression mode : Lossless
Language : German
Default : No
Forced : No

Text #13
ID : 16
Format : ASS
Codec ID : S_TEXT/ASS
Codec ID/Info : Advanced Sub Station Alpha
Duration : 47 min 16 s
Compression mode : Lossless
Language : Greek
Default : No
Forced : No

Text #14
ID : 17
Format : ASS
Codec ID : S_TEXT/ASS
Codec ID/Info : Advanced Sub Station Alpha
Duration : 47 min 16 s
Compression mode : Lossless
Language : Hebrew
Default : No
Forced : No

Text #15
ID : 18
Format : ASS
Codec ID : S_TEXT/ASS
Codec ID/Info : Advanced Sub Station Alpha
Duration : 47 min 18 s
Compression mode : Lossless
Language : Hungarian
Default : No
Forced : No

Text #16
ID : 19
Format : ASS
Codec ID : S_TEXT/ASS
Codec ID/Info : Advanced Sub Station Alpha
Duration : 47 min 16 s
Compression mode : Lossless
Language : Indonesian
Default : No
Forced : No

Text #17
ID : 20
Format : ASS
Codec ID : S_TEXT/ASS
Codec ID/Info : Advanced Sub Station Alpha
Duration : 47 min 16 s
Compression mode : Lossless
Language : Italian
Default : No
Forced : No

Text #18
ID : 21
Format : ASS
Codec ID : S_TEXT/ASS
Codec ID/Info : Advanced Sub Station Alpha
Duration : 47 min 16 s
Compression mode : Lossless
Language : Japanese
Default : No
Forced : No

Text #19
ID : 22
Format : ASS
Codec ID : S_TEXT/ASS
Codec ID/Info : Advanced Sub Station Alpha
Duration : 47 min 16 s
Compression mode : Lossless
Language : Korean
Default : No
Forced : No

Text #20
ID : 23
Format : ASS
Codec ID : S_TEXT/ASS
Codec ID/Info : Advanced Sub Station Alpha
Duration : 47 min 16 s
Compression mode : Lossless
Title : Bokmål
Language : Norwegian
Default : No
Forced : No

Text #21
ID : 24
Format : ASS
Codec ID : S_TEXT/ASS
Codec ID/Info : Advanced Sub Station Alpha
Duration : 47 min 16 s
Compression mode : Lossless
Language : Polish
Default : No
Forced : No

Text #22
ID : 25
Format : ASS
Codec ID : S_TEXT/ASS
Codec ID/Info : Advanced Sub Station Alpha
Duration : 47 min 16 s
Compression mode : Lossless
Language : Portuguese
Default : No
Forced : No

Text #23
ID : 26
Format : ASS
Codec ID : S_TEXT/ASS
Codec ID/Info : Advanced Sub Station Alpha
Duration : 47 min 16 s
Compression mode : Lossless
Title : Brazilian
Language : Portuguese
Default : No
Forced : No

Text #24
ID : 27
Format : ASS
Codec ID : S_TEXT/ASS
Codec ID/Info : Advanced Sub Station Alpha
Duration : 47 min 16 s
Compression mode : Lossless
Language : Romanian
Default : No
Forced : No

Text #25
ID : 28
Format : ASS
Codec ID : S_TEXT/ASS
Codec ID/Info : Advanced Sub Station Alpha
Duration : 47 min 16 s
Compression mode : Lossless
Language : Russian
Default : No
Forced : No

Text #26
ID : 29
Format : ASS
Codec ID : S_TEXT/ASS
Codec ID/Info : Advanced Sub Station Alpha
Duration : 6 min 14 s
Compression mode : Lossless
Title : Forced
Language : Spanish
Default : No
Forced : No

Text #27
ID : 30
Format : ASS
Codec ID : S_TEXT/ASS
Codec ID/Info : Advanced Sub Station Alpha
Duration : 45 min 45 s
Compression mode : Lossless
Title : SDH
Language : Spanish
Default : No
Forced : No

Text #28
ID : 31
Format : ASS
Codec ID : S_TEXT/ASS
Codec ID/Info : Advanced Sub Station Alpha
Duration : 47 min 16 s
Compression mode : Lossless
Language : Swedish
Default : No
Forced : No

Text #29
ID : 32
Format : ASS
Codec ID : S_TEXT/ASS
Codec ID/Info : Advanced Sub Station Alpha
Duration : 47 min 16 s
Compression mode : Lossless
Language : Thai
Default : No
Forced : No

Text #30
ID : 33
Format : ASS
Codec ID : S_TEXT/ASS
Codec ID/Info : Advanced Sub Station Alpha
Duration : 47 min 16 s
Compression mode : Lossless
Language : Turkish
Default : No
Forced : No

Text #31
ID : 34
Format : ASS
Codec ID : S_TEXT/ASS
Codec ID/Info : Advanced Sub Station Alpha
Duration : 47 min 16 s
Compression mode : Lossless
Language : Ukrainian
Default : No
Forced : No

Text #32
ID : 35
Format : ASS
Codec ID : S_TEXT/ASS
Codec ID/Info : Advanced Sub Station Alpha
Duration : 47 min 17 s
Compression mode : Lossless
Language : Vietnamese
Default : No
Forced : No

ReportBy : MediaInfoLib - v23.10

Files